Все Тут Online
Все Тут Online
Новые сообщения
Все сообщения за последних 24 часа
Все сообщения за последнюю неделю
Расширенный Поиск

   
Меню сайта:
Главная
Форум
Чат
- Online приложения:
- Игры
- Выбор стиля:
- FAQ
- Для начинающих

Вернуться   Все Тут Online > ОЦИФРОВКИ ВИНИЛА (Lossless) > ФОЛЬКЛОР, Народная и Этническая музыка (Lossless) > Зарубежный ФОЛК (lossless)

Старый 14.01.2017, 10:51   #1
shurele
Гость
 

Сообщений: n/a
По умолчанию Joan Baez ‎– It Ain't Me Babe

Joan Baez

It Ain't Me Babe



Джоан Чендос Ба́эз (Баэс, англ. Joan Chandos Baez; 9 января 1941 года, Нью-Йорк) — американская певица и автор песен, исполняющая музыку преимущественно в стилях фолк и кантри, левая политическая активистка.

Joan Baez - Википедия

Joan Baez - Королева фолкзингеров


Альбом: It Ain't Me Babe
Исполнитель: Joan Baez
Год выпуска: 1990
Время звучания: 01:00:26
Жанр: Folk
Формат: FLAC (tracks)/ MP3 (320) (tracks)
Качество: Lossless
Количество треков: 16
Размер архива: flac - 285 Mb; mp3 (320kbps) - 134 Mb
Язык релиза: английский

Содержание:

1 Birmingham Sunday - (Farina) - 3:58
2 The Unquiet Grave - (Trad.) - 4:19
3 When You Hear Them Cockoos Hollerin' - (Unknown) - 2:45
4 Barbara Allen - (Trad.) - 4:13
5 El Preso Numero Nuevo - (Cantoral/Cantoral) - 2:47
6 It Ain't Me Babe - (Dylan) - 3:16
7 The 33rd Of August - (Newberry) - 3:42
8 Little Moses - (Cantoral) - 3:25
9 Donna, Donna - (Zeitlin/Secunda) - 3:09
10 Rake And The Rambling Boy' - (Unknown) - 1:52
11 Wildwood Flower - (Unknown) - 2:30
12 I Still Miss Someone - (Cash/Cash Jr.) - 3:10
13 There But For Fortune - (Ochs) - 3:11
14 Matty Groves - (Trad.) - 7:29
15 The Death Of Queen Jane - (Child No. 170) - 3:56
16 Stewball - (Rinzer/Yellin/Herald) - 2:57




Код:
Exact Audio Copy V1.0 beta 3 from 29. August 2011

EAC extraction logfile from 12. January 2017, 7:47

Joan Baez / It Ain't Me Babe

Used drive : TSSTcorpCDDVDW SH-216DB Adapter: 0 ID: 0

Read mode : Secure
Utilize accurate stream : Yes
Defeat audio cache : Yes
Make use of C2 pointers : No

Read offset correction : 6
Overread into Lead-In and Lead-Out : No
Fill up missing offset samples with silence : Yes
Delete leading and trailing silent blocks : No
Null samples used in CRC calculations : Yes
Used interface : Native Win32 interface for Win NT & 2000

Used output format : User Defined Encoder
Selected bitrate : 1024 kBit/s
Quality : High
Add ID3 tag : No
Command line compressor : C:\Program Files (x86)\Exact Audio Copy\Flac\flac.exe
Additional command line options : -V -8 -T "Date=%year%" -T "Genre=%genre%" %source%


TOC of the extracted CD

Track | Start | Length | Start sector | End sector
---------------------------------------------------------
1 | 0:00.32 | 4:04.15 | 32 | 18346
2 | 4:04.47 | 4:23.50 | 18347 | 38121
3 | 8:28.22 | 2:48.63 | 38122 | 50784
4 | 11:17.10 | 4:14.50 | 50785 | 69884
5 | 15:31.60 | 2:49.12 | 69885 | 82571
6 | 18:20.72 | 3:20.13 | 82572 | 97584
7 | 21:41.10 | 3:42.50 | 97585 | 114284
8 | 25:23.60 | 3:29.50 | 114285 | 130009
9 | 28:53.35 | 3:14.12 | 130010 | 144571
10 | 32:07.47 | 1:57.50 | 144572 | 153396
11 | 34:05.22 | 2:35.63 | 153397 | 165084
12 | 36:41.10 | 3:14.50 | 165085 | 179684
13 | 39:55.60 | 3:15.12 | 179685 | 194321
14 | 43:10.72 | 7:17.63 | 194322 | 227159
15 | 50:28.60 | 3:50.62 | 227160 | 244471
16 | 54:19.47 | 2:58.00 | 244472 | 257821


Range status and errors

Selected range

Filename L:\Private\My Audio Ripps\ CD - RIPS\Joan Baez - It Ain't Me Baby\Joan Baez - It Ain't Me Babe.wav

Peak level 100.0 %
Extraction speed 2.4 X
Range quality 100.0 %
Test CRC 6B91FACD
Copy CRC 6B91FACD
Copy OK

No errors occurred


AccurateRip summary

Track 1 accurately ripped (confidence 5) [E1C1C05C] (AR v2)
Track 2 accurately ripped (confidence 5) [2311500E] (AR v2)
Track 3 accurately ripped (confidence 5) [D3AD6B19] (AR v2)
Track 4 accurately ripped (confidence 5) [3A66B4D9] (AR v2)
Track 5 accurately ripped (confidence 5) [54427079] (AR v2)
Track 6 accurately ripped (confidence 5) [3B429CC0] (AR v2)
Track 7 accurately ripped (confidence 5) [5DC39D2F] (AR v2)
Track 8 accurately ripped (confidence 5) [C0574A5F] (AR v2)
Track 9 accurately ripped (confidence 5) [E7F91FF4] (AR v2)
Track 10 accurately ripped (confidence 5) [1FCB1743] (AR v2)
Track 11 accurately ripped (confidence 5) [5A9CF9B9] (AR v2)
Track 12 accurately ripped (confidence 5) [622687F8] (AR v2)
Track 13 accurately ripped (confidence 5) [BB7D5BC5] (AR v2)
Track 14 accurately ripped (confidence 5) [08CC418A] (AR v2)
Track 15 accurately ripped (confidence 5) [2E8522DA] (AR v2)
Track 16 accurately ripped (confidence 5) [A0E8DD72] (AR v2)

All tracks accurately ripped

End of status report

==== Log checksum 86FE085866204EF0368BAF6ECE84BEAD2D1711EB082203BC91AC45DC273D15CB ====

Printed in Germany
Made in Switzerland
Rights Society: GEMA
Barcode: 4 013659 010595

Рип - мой



Страна: Germany
Издатель (лейбл): Universe (2) ‎– UN 1 039
Формат: FLAC / MP3 (320)
Параметры: CD, Compilation, Remastered, Rip, image, log, cue
Источник: СД из собственной коллекции


Скрытый текст (вы должны зарегистрироваться или войти под своим логином):
У вас нет прав чтобы видеть скрытый текст, содержащейся здесь.
  Ответить с цитированием
7 пользователя(ей) сказали cпасибо:
Д.Исакович (14.01.2017), Дмитрий (14.01.2017), andrew_kamsky (14.01.2017), FENIX99966 (05.11.2017), Никита9988 (26.02.2017), kopilovoleg (14.01.2017), SergeL (12.02.2022)
Ответ

Закладки

Опции темы
Опции просмотра

Ваши права в разделе
Вы не можете создавать новые темы
Вы не можете отвечать в темах
Вы не можете прикреплять вложения
Вы не можете редактировать свои сообщения

BB коды Вкл.
Смайлы Вкл.
[IMG] код Вкл.
HTML код Выкл.

Быстрый переход


Часовой пояс GMT +3, время: 14:08.


Powered by vBulletin® Version 3.8.2
Copyright ©2000 - 2024, Jelsoft Enterprises Ltd. Перевод: zCarot
Rambler's Top100 Республика Татарстан - Каталог сайтов