Все Тут Online
Все Тут Online
Новые сообщения
Все сообщения за последних 24 часа
Все сообщения за последнюю неделю
Расширенный Поиск

   
Меню сайта:
Главная
Форум
Чат
- Online приложения:
- Игры
- Выбор стиля:
- FAQ
- Для начинающих

Вернуться   Все Тут Online > АУДИОТЕКА (Mp3) сжатые форматы - рипы с CD, магнитоленты и винила. > В гостях у ДИНГО (Музыка ПРИБАЛТИКИ). > МУЗЫКА ПРИБАЛТИКИ (LossLess)

Старый 29.01.2010, 15:18   #1
АртистЪ
VIP
 
Аватар для АртистЪ
 

Регистрация: 29.01.2010
Адрес: Ростов Великий
Сообщений: 379
Сказал(а) спасибо: 90
Поблагодарили 317 раз(а) в 154 сообщениях
АртистЪ обеспечил(а) себе прекрасное будущееАртистЪ обеспечил(а) себе прекрасное будущееАртистЪ обеспечил(а) себе прекрасное будущееАртистЪ обеспечил(а) себе прекрасное будущееАртистЪ обеспечил(а) себе прекрасное будущееАртистЪ обеспечил(а) себе прекрасное будущееАртистЪ обеспечил(а) себе прекрасное будущееАртистЪ обеспечил(а) себе прекрасное будущееАртистЪ обеспечил(а) себе прекрасное будущееАртистЪ обеспечил(а) себе прекрасное будущееАртистЪ обеспечил(а) себе прекрасное будущее
По умолчанию Раймонд Паулс - «Мой путь» - 1980 (винил, flac)

Раймонд Паулс - «Мой путь» - 1980 (винил, flac)




(Мелодия С60-14211) (винил, flac)

TITLE "Мой путь (Мелодия С60-14211)"
PERFORMER "Раймонд Паулс"
FILE "Raimond.Pauls-Mans.Celsh.flac" WAVE
TRACK 01 AUDIO
TITLE "Увеселитель"
INDEX 01 00:00:00
TRACK 02 AUDIO
TITLE "Как велика твоя любовь"
INDEX 01 03:25:39
TRACK 03 AUDIO
TITLE "Здравствуй"
INDEX 01 06:46:14
TRACK 04 AUDIO
TITLE "Мой путь"
INDEX 01 10:23:36
TRACK 05 AUDIO
TITLE "Босса нова США"
INDEX 01 13:52:14
TRACK 06 AUDIO
TITLE "Буги"
INDEX 01 16:46:56
TRACK 07 AUDIO
TITLE "И если бы тебя не было"
INDEX 01 19:43:06
TRACK 08 AUDIO
TITLE "Я согласен"
INDEX 01 23:00:28
TRACK 09 AUDIO
TITLE "Чувство"
INDEX 01 26:40:60
TRACK 10 AUDIO
TITLE "Жить, чтобы выжить "
INDEX 01 30:57:06

Ссылки:

Скрытый текст (вы должны войти под своим логином или зарегистрироваться и иметь 1 сообщение(ий)):
У вас нет прав чтобы видеть скрытый текст, содержащейся здесь.

Последний раз редактировалось ВАЛДАС; 31.01.2010 в 14:51.
АртистЪ вне форума   Ответить с цитированием
2 пользователя(ей) сказали cпасибо:
ujujkm (17.06.2013)
Старый 07.07.2012, 00:18   #2
wilx
Активный
 

Регистрация: 15.04.2012
Адрес: Латвия
Сообщений: 1
Сказал(а) спасибо: 0
Поблагодарили 0 раз(а) в 0 сообщениях
wilx на пути к лучшему
По умолчанию

Спасибо !!!
wilx вне форума   Ответить с цитированием
Старый 29.11.2015, 14:19   #3
Edixoni
Активный
 

Регистрация: 29.11.2015
Сообщений: 1
Сказал(а) спасибо: 1
Поблагодарили 0 раз(а) в 0 сообщениях
Edixoni на пути к лучшему
По умолчанию как download? ....нет прав...

как download? ....нет прав...
Edixoni вне форума   Ответить с цитированием
Старый 29.11.2015, 14:22   #4
Дмитрий
Администратор
 
Аватар для Дмитрий
 
Турниров выиграно: 1

Регистрация: 12.12.2008
Адрес: Москва прошлого тысячелетия.
Сообщений: 229,624
Сказал(а) спасибо: 42,661
Поблагодарили 254,955 раз(а) в 94,389 сообщениях
Дмитрий репутация неоспоримаДмитрий репутация неоспоримаДмитрий репутация неоспоримаДмитрий репутация неоспоримаДмитрий репутация неоспоримаДмитрий репутация неоспоримаДмитрий репутация неоспоримаДмитрий репутация неоспоримаДмитрий репутация неоспоримаДмитрий репутация неоспоримаДмитрий репутация неоспорима
По умолчанию

Edixoni, оцифровка пластинки от форумчан, пожалуйста:

http://vsetutonline.com/forum/showthread.php?t=70370
__________________
О нас думают плохо лишь те, кто хуже нас. А те, кто лучше нас, им просто не до нас.
--Омар Хайям

Обновления по запросу — на Я.Ди. «Мэйл-облако» для тех, кто помогает нашему интернет-проекту, и для тех, кто хотел бы это делать, но пока не знает, как.

Помогая форуму ВТО, вы прежде всего помогаете себе! А не делаете что-то абстрактное для «других», совершенно незнакомых и безразличных вам людей.
Дмитрий вне форума   Ответить с цитированием
Ответ

Закладки

Опции темы
Опции просмотра

Ваши права в разделе
Вы не можете создавать новые темы
Вы не можете отвечать в темах
Вы не можете прикреплять вложения
Вы не можете редактировать свои сообщения

BB коды Вкл.
Смайлы Вкл.
[IMG] код Вкл.
HTML код Выкл.

Быстрый переход


Часовой пояс GMT +3, время: 05:42.


Powered by vBulletin® Version 3.8.2
Copyright ©2000 - 2024, Jelsoft Enterprises Ltd. Перевод: zCarot
Rambler's Top100 Республика Татарстан - Каталог сайтов