Все Тут Online

   
Меню сайта:
Главная
Форум
Чат
- Online приложения:
- Игры
- Выбор стиля:
- FAQ
- Для начинающих

Вернуться   Все Тут Online > CD (Компакт диски) Lossless - МУЗЫКА БЕЗ ПОТЕРИ КАЧЕСТВА > ПОП МУЗЫКА, Eurodance, Disco (Lossless) > Отечественная Поп музыка (lossless)

загрузка...
Ответ
 
Опции темы Опции просмотра
Старый 08.06.2009, 10:37   #1
Tomas
вечная память
 

Регистрация: 19.11.2008
Адрес: СССР
Сообщений: 9,672
Сказал(а) спасибо: 1,522
Поблагодарили 5,033 раз(а) в 2,047 сообщениях
Tomas репутация неоспоримаTomas репутация неоспоримаTomas репутация неоспоримаTomas репутация неоспоримаTomas репутация неоспоримаTomas репутация неоспоримаTomas репутация неоспоримаTomas репутация неоспоримаTomas репутация неоспоримаTomas репутация неоспоримаTomas репутация неоспорима
По умолчанию V.A. Очень горячая двадцатка (выпуск 5) 1999

загрузка...
Спасибо Naumchik за предоставленный сборник!



Исполнитель Various Artists
Альбом Очень горячая двадцатка (выпуск 5) 1999
Жанр Поп
Содержание
01.Алсу - Зимний сон
02.Гостья из будущего - Беги от меня
03.А.Макаревич - Перекрёсток семи дорог
04.В.Сюткин - 21 век
05.Е.Панурова - Губки бантиком
06.А.Апина - Именины
07.Шан-Хай - Снежная королева
08.В.Меладзе - Красиво
09.Амега - Лететь
10.Сестрицы Алёнушки - Не грусти
11.С.Меньшикова - Никогда
12.Лицей - Рыжий Пёс
13.Каролина - Прогулка
14.В.Левкин - Прощай
15.Hi-Fi - Белая река
16.И.Николаев - Самая родная
17.Белый день - Володенька
18.Н.Королёва - В тёмной комнате
19.Алеша - Зачем я так люблю
20.Б.Моисеев - Звёздочка

Добавлена опция для восстановления 3%
EAC, FLAC, CUE, LOG, Covers




Ссылка и пароль:
[HIDE-THANKS]http://rapidshare.com/files/24215551...V-99.part1.rar
http://rapidshare.com/files/24216308...V-99.part2.rar
http://rapidshare.com/files/24216999...V-99.part3.rar

Tomas

Covers: http://rapidshare.com/files/242189253/Covers.rar[/HIDE-THANKS]
Цитата:
Exact Audio Copy V0.99 prebeta 5 from 4. May 2009

Отчёт EAC об извлечении, выполненном 8. июня 2009, 10:07

Various Artists / Очень горячая двадцатка (выпуск 5)

Дисковод: TSSTcorpCDDVDW SH-S223F Adapter: 2 ID: 0

Режим чтения : Достоверность
Использование точного потока : Да
Отключение кэша аудио : Да
Использование указателей C2 : Нет

Коррекция смещения при чтении : 6
Способность читать области Lead-in и Lead-out : Нет
Заполнение пропущенных сэмплов тишиной : Да
Удаление блоков с тишиной в начале и конце : Нет
При вычислениях CRC использовались нулевые сэмплы : Да
Интерфейс : Встроенный Win32-интерфейс для Win NT/2000

Выходной формат : Внутренние WAV-операции
Формат сэмплов : 44.100 Гц; 16 бит; стерео


TOC извлечённого CD

Трек | Старт | Длительность | Начальный сектор | Конечный сектор
---------------------------------------------------------------------
1 | 0:00.00 | 3:44.30 | 0 | 16829
2 | 3:44.30 | 4:20.00 | 16830 | 36329
3 | 8:04.30 | 4:17.46 | 36330 | 55650
4 | 12:22.01 | 3:06.02 | 55651 | 69602
5 | 15:28.03 | 4:01.30 | 69603 | 87707
6 | 19:29.33 | 3:40.37 | 87708 | 104244
7 | 23:09.70 | 4:31.49 | 104245 | 124618
8 | 27:41.44 | 4:39.65 | 124619 | 145608
9 | 32:21.34 | 4:23.63 | 145609 | 165396
10 | 36:45.22 | 3:44.42 | 165397 | 182238
11 | 40:29.64 | 2:52.01 | 182239 | 195139
12 | 43:21.65 | 3:48.51 | 195140 | 212290
13 | 47:10.41 | 3:29.42 | 212291 | 228007
14 | 50:40.08 | 3:02.47 | 228008 | 241704
15 | 53:42.55 | 3:17.62 | 241705 | 256541
16 | 57:00.42 | 3:11.08 | 256542 | 270874
17 | 60:11.50 | 2:30.38 | 270875 | 282162
18 | 62:42.13 | 3:09.25 | 282163 | 296362
19 | 65:51.38 | 4:44.67 | 296363 | 317729
20 | 70:36.30 | 3:33.31 | 317730 | 333735


Характеристики диапазона извлечения и сообщения об ошибках

Выбранный диапазон

Имя файла C:\Documents and Settings\Vladimir\Рабочий стол\Очень горячая двадцатка (выпуск 5) 1999\Various Artists - Очень горячая двадцатка (выпуск 5).wav

Пиковый уровень 100.0 %
Качество диапазона 100.0 %
CRC копии 1FF51883
Копирование... OK

Ошибок не произошло

Конец отчёта
Tomas вне форума   Ответить с цитированием
Старый 28.08.2012, 13:10   #2
Retroooooo
Новичок
 

Регистрация: 09.09.2011
Сообщений: 9
Сказал(а) спасибо: 10
Поблагодарили 0 раз(а) в 0 сообщениях
Retroooooo на пути к лучшему
По умолчанию

Помогите с обложками..посмотреть очень хочется...
Retroooooo вне форума   Ответить с цитированием
Старый 16.01.2013, 06:16   #3
bsvretro
Новичок
 

Регистрация: 27.04.2010
Сообщений: 5
Сказал(а) спасибо: 6
Поблагодарили 0 раз(а) в 0 сообщениях
bsvretro на пути к лучшему
По умолчанию

Обновите ссылки, плиз
bsvretro вне форума   Ответить с цитированием
Ответ

Закладки

Опции темы
Опции просмотра

Ваши права в разделе
Вы не можете создавать новые темы
Вы не можете отвечать в темах
Вы не можете прикреплять вложения
Вы не можете редактировать свои сообщения

BB коды Вкл.
Смайлы Вкл.
[IMG] код Вкл.
HTML код Выкл.

Быстрый переход


Часовой пояс GMT, время: 22:25.


Powered by vBulletin® Version 3.8.2
Copyright ©2000 - 2017, Jelsoft Enterprises Ltd. Перевод: zCarot
Rambler's Top100 Республика Татарстан - Каталог сайтов