Все Тут Online
Все Тут Online
Новые сообщения
Все сообщения за последних 24 часа
Все сообщения за последнюю неделю
Расширенный Поиск

   
Меню сайта:
Главная
Форум
Чат
- Online приложения:
- Игры
- Выбор стиля:
- FAQ
- Для начинающих

Вернуться   Все Тут Online > CD (Компакт диски) Lossless - МУЗЫКА БЕЗ ПОТЕРИ КАЧЕСТВА > ПОП МУЗЫКА, Eurodance, Disco (Lossless) > Зарубежная Поп музыка (lossless)

Старый 03.10.2009, 15:21   #1
Tomas
вечная память
 
Аватар для Tomas
 

Регистрация: 19.11.2008
Адрес: СССР
Сообщений: 8,569
Сказал(а) спасибо: 1,496
Поблагодарили 6,376 раз(а) в 2,127 сообщениях
Tomas репутация неоспоримаTomas репутация неоспоримаTomas репутация неоспоримаTomas репутация неоспоримаTomas репутация неоспоримаTomas репутация неоспоримаTomas репутация неоспоримаTomas репутация неоспоримаTomas репутация неоспоримаTomas репутация неоспоримаTomas репутация неоспорима
По умолчанию Fantastic Disco - Коллекция 25 CD (Lossless)

ОБНОВЛЕННАЯ ССЫЛКА НА ДИСКИ:

Скрытый текст (вы должны зарегистрироваться или войти под своим логином):
У вас нет прав чтобы видеть скрытый текст, содержащейся здесь.







Исполнитель Various Artists
Альбом Fantastic Disco 9
Жанр Disco
Содержание
01.Bonny M - Night Flight To Venus
02.Bonny M - Rasputin
03.Fancy - Chinrse Eyes
04.Secret Service - When The Dancer You Have loved
05.F.R.David - This Time I Have To Win
06.Mike Mareen - Don`t Talk To The Snake
07.Silent Circle - Night
08.Digital Emotion - Go Go Yellow Screen
09.Bonny M - Living Like A Moviestar
10.Mike Mareen - Agent For Liberty
11.Erasure - Lav AllYour Love On Me
12.Ken Lazslo - Glasses Man
13.Silicon Dream - Andromeda
14.Spase - Running In The City

Добавлена опция для восстановления 3%
EAC, FLAC, CUE, LOG,
Сканы не прилагаются. Качество очень низкое.




Ссылка и пароль:
Скрытый текст (вы должны войти под своим логином или зарегистрироваться и иметь 1 сообщение(ий)):
У вас нет прав чтобы видеть скрытый текст, содержащейся здесь.


Взято торрентом


Последний раз редактировалось Дмитрий; 23.05.2010 в 03:52.
Tomas вне форума   Ответить с цитированием
21 пользователя(ей) сказали cпасибо:
Валерий0207 (06.12.2019), AAlex (05.11.2021), Александр4937 (08.11.2019), Андрей В. (08.03.2020), beker (10.11.2019), billi (14.01.2018), Boor (09.03.2020), Georgew (26.03.2020), параллепипед (04.01.2020), meunome (30.01.2018), Тёма74 (09.11.2019), sautsch (14.04.2021), skot55 (16.12.2017), sven&sven (17.07.2021), tenuem (09.04.2021), toha (07.11.2021), vfulf34erh (30.05.2015), wtd77483 (20.11.2020), жухрай (08.11.2019)
Старый 05.10.2009, 11:36   #2
Tomas
вечная память
 
Аватар для Tomas
 

Регистрация: 19.11.2008
Адрес: СССР
Сообщений: 8,569
Сказал(а) спасибо: 1,496
Поблагодарили 6,376 раз(а) в 2,127 сообщениях
Tomas репутация неоспоримаTomas репутация неоспоримаTomas репутация неоспоримаTomas репутация неоспоримаTomas репутация неоспоримаTomas репутация неоспоримаTomas репутация неоспоримаTomas репутация неоспоримаTomas репутация неоспоримаTomas репутация неоспоримаTomas репутация неоспорима
По умолчанию Fantastic Disco 23 (Lossless)



Исполнитель Various Artists
Альбом Fantastic Disco 23
Жанр Disco
Содержание
01. Roni Griffith - Heart Of The Line
02. Mike Mareen - Dancing In The Dark
03. Gibson Brothers - Cuba
04. Amanda Lear - Blood And Honey
05. Savage - So Close
06. Gina T. - Hey Angel
07. Den Harrow - Lies
08. Cerrone - Panic
09. Chilly - Gotta Move On
10. Loft - Summer, Summer
11. Scotch - Money Runner
12. Supermax - Today I Fall In Love Again
13. Voyage - From East To West
14. C.C. Catch - Nothing's Gonna Change Our Love

Добавлена опция для восстановления 3%
EAC, APE, CUE, LOG, Covers
Сканы в архиве




Ссылка и пароль:
Скрытый текст (вы должны войти под своим логином или зарегистрироваться и иметь 1 сообщение(ий)):
У вас нет прав чтобы видеть скрытый текст, содержащейся здесь.


Последний раз редактировалось Дмитрий; 23.05.2010 в 04:12.
Tomas вне форума   Ответить с цитированием
7 пользователя(ей) сказали cпасибо:
Дмитрий (05.10.2009), dmitry69 (08.04.2012), DNA (06.10.2009), Naumchik (05.10.2009), skot55 (16.12.2017), vfulf34erh (30.05.2015)
Старый 16.10.2009, 12:09   #3
Tomas
вечная память
 
Аватар для Tomas
 

Регистрация: 19.11.2008
Адрес: СССР
Сообщений: 8,569
Сказал(а) спасибо: 1,496
Поблагодарили 6,376 раз(а) в 2,127 сообщениях
Tomas репутация неоспоримаTomas репутация неоспоримаTomas репутация неоспоримаTomas репутация неоспоримаTomas репутация неоспоримаTomas репутация неоспоримаTomas репутация неоспоримаTomas репутация неоспоримаTomas репутация неоспоримаTomas репутация неоспоримаTomas репутация неоспорима
По умолчанию VA Fantastic Disco (Vol.1) 1994 (Lossless)



Исполнитель Various Artists
Альбом Fantastic Disco (Vol.1)
Жанр Disco
Содержание
01.Chilly - We Are The Pop Kings
02.Eruption - One Way Ticket
03.Laid Back - Sunshine Reggae
04.La Bionda - Sandstorm
05.Belle Epoque - Miss Broadway
06.Gilla - Johny
07.Goombay Dance Band - Seven Tears
08.Dschinghis Khan - Israel, Israel
09.Boney M - Bahama Mama
10.F.R.David - Words
11.Joe Dolan - Lady In Blue
12.Arabesque - Midnight Lover
13.Space - Tango In Space1
14.Lipps, Inc. - Designer Music
15.Desireless - Voyage, Voyage

Добавлена опция для восстановления 3%
EAC, FLAC, CUE, LOG, Covers
Сканы в архиве




Ссылка и пароль:
Скрытый текст (вы должны войти под своим логином или зарегистрироваться и иметь 1 сообщение(ий)):
У вас нет прав чтобы видеть скрытый текст, содержащейся здесь.


Цитата:
Exact Audio Copy V0.99 prebeta 5 from 4. May 2009

Отчёт EAC об извлечении, выполненном 1. октября 2009, 23:16

Various / Fantastic Disco. vol. 1

Дисковод: TSSTcorpCDDVDW SH-S223F Adapter: 2 ID: 0

Режим чтения : Достоверность
Использование точного потока : Да
Отключение кэша аудио : Да
Использование указателей C2 : Нет

Коррекция смещения при чтении : 6
Способность читать области Lead-in и Lead-out : Нет
Заполнение пропущенных сэмплов тишиной : Да
Удаление блоков с тишиной в начале и конце : Нет
При вычислениях CRC использовались нулевые сэмплы : Да
Интерфейс : Встроенный Win32-интерфейс для Win NT/2000

Выходной формат : Внутренние WAV-операции
Формат сэмплов : 44.100 Гц; 16 бит; стерео


TOC извлечённого CD

Трек | Старт | Длительность | Начальный сектор | Конечный сектор
---------------------------------------------------------------------
1 | 0:00.00 | 4:05.73 | 0 | 18447
2 | 4:05.73 | 3:36.27 | 18448 | 34674
3 | 7:42.25 | 4:16.63 | 34675 | 53937
4 | 11:59.13 | 5:50.04 | 53938 | 80191
5 | 17:49.17 | 7:25.00 | 80192 | 113566
6 | 25:14.17 | 3:43.18 | 113567 | 130309
7 | 28:57.35 | 3:48.73 | 130310 | 147482
8 | 32:46.33 | 5:42.70 | 147483 | 173202
9 | 38:29.28 | 3:18.15 | 173203 | 188067
10 | 41:47.43 | 3:27.20 | 188068 | 203612
11 | 45:14.63 | 3:04.67 | 203613 | 217479
12 | 48:19.55 | 3:41.00 | 217480 | 234054
13 | 52:00.55 | 4:28.08 | 234055 | 254162
14 | 56:28.63 | 5:41.25 | 254163 | 279762
15 | 62:10.13 | 4:22.05 | 279763 | 299417


Характеристики диапазона извлечения и сообщения об ошибках

Выбранный диапазон

Имя файла C:\Documents and Settings\Vladimir\Рабочий стол\Fantastic Disco\Fantastic Disco 1\Various - Fantastic Disco. vol. 1.wav

Пиковый уровень 100.0 %
Качество диапазона 100.0 %
CRC копии 3A629B10
Копирование... OK

Ошибок не произошло

Конец отчёта

Последний раз редактировалось Дмитрий; 23.05.2010 в 01:37.
Tomas вне форума   Ответить с цитированием
5 пользователя(ей) сказали cпасибо:
MC Echtch (28.06.2011), radiopiratas (26.12.2009), skot55 (16.12.2017), subidubi (29.01.2021)
Старый 16.10.2009, 14:21   #4
Tomas
вечная память
 
Аватар для Tomas
 

Регистрация: 19.11.2008
Адрес: СССР
Сообщений: 8,569
Сказал(а) спасибо: 1,496
Поблагодарили 6,376 раз(а) в 2,127 сообщениях
Tomas репутация неоспоримаTomas репутация неоспоримаTomas репутация неоспоримаTomas репутация неоспоримаTomas репутация неоспоримаTomas репутация неоспоримаTomas репутация неоспоримаTomas репутация неоспоримаTomas репутация неоспоримаTomas репутация неоспоримаTomas репутация неоспорима
По умолчанию VA Fantastic Disco (Vol.2) 1994 (Lossless)



Исполнитель Various Artists
Альбом Fantastic Disco (Vol.2)
Жанр Disco
Содержание
01.Belle Epoque - Bamalama
02.Gilla - Help! Help!
03.Laid Back - White Horse
04.Chilly - Play Me A Classic Symphony
05.Gombay Dance Band - Rain
06.Lipps, Inc. - Funytown
07.F.R.David - Pick Up Th Phone
08.Eruption - I Can't Stand The Rain
09.Dschinghis Khan - Samurai
10.Boney M - Belfast
11.Desireless - Elle Est Comme Les Etoiles
12.La Bionda - Deserts Of Mars
13.Space - Symphony
14.Arabesque - Hello, Mr. Monkey
15.Joe Dolan - Make Me An Island

Добавлена опция для восстановления 3%
EAC, FLAC, CUE, LOG, Covers
Сканы в архиве




Ссылка и пароль:
Скрытый текст (вы должны войти под своим логином или зарегистрироваться и иметь 1 сообщение(ий)):
У вас нет прав чтобы видеть скрытый текст, содержащейся здесь.


Цитата:
Exact Audio Copy V0.99 prebeta 5 from 4. May 2009

Отчёт EAC об извлечении, выполненном 1. октября 2009, 23:47

Various / Fantastic Disco 2

Дисковод: TSSTcorpCDDVDW SH-S223F Adapter: 2 ID: 0

Режим чтения : Достоверность
Использование точного потока : Да
Отключение кэша аудио : Да
Использование указателей C2 : Нет

Коррекция смещения при чтении : 6
Способность читать области Lead-in и Lead-out : Нет
Заполнение пропущенных сэмплов тишиной : Да
Удаление блоков с тишиной в начале и конце : Нет
При вычислениях CRC использовались нулевые сэмплы : Да
Интерфейс : Встроенный Win32-интерфейс для Win NT/2000

Выходной формат : Внутренние WAV-операции
Формат сэмплов : 44.100 Гц; 16 бит; стерео


TOC извлечённого CD

Трек | Старт | Длительность | Начальный сектор | Конечный сектор
---------------------------------------------------------------------
1 | 0:00.00 | 5:01.15 | 0 | 22589
2 | 5:01.15 | 3:06.62 | 22590 | 36601
3 | 8:08.02 | 3:55.48 | 36602 | 54274
4 | 12:03.50 | 3:00.62 | 54275 | 67836
5 | 15:04.37 | 4:07.63 | 67837 | 86424
6 | 19:12.25 | 7:50.42 | 86425 | 121716
7 | 27:02.67 | 3:57.33 | 121717 | 139524
8 | 31:00.25 | 2:41.50 | 139525 | 151649
9 | 33:42.00 | 4:42.35 | 151650 | 172834
10 | 38:24.35 | 3:31.47 | 172835 | 188706
11 | 41:56.07 | 4:16.58 | 188707 | 207964
12 | 46:12.65 | 5:34.35 | 207965 | 233049
13 | 51:47.25 | 5:01.32 | 233050 | 255656
14 | 56:48.57 | 3:28.35 | 255657 | 271291
15 | 60:17.17 | 2:55.58 | 271292 | 284474


Характеристики диапазона извлечения и сообщения об ошибках

Выбранный диапазон

Имя файла C:\Documents and Settings\Vladimir\Рабочий стол\Fantastic Disco\Fantastic Disco 2\Various - Fantastic Disco 2.wav

Пиковый уровень 98.4 %
Качество диапазона 100.0 %
CRC копии 12600248
Копирование... OK

Ошибок не произошло

Конец отчёта

Последний раз редактировалось Дмитрий; 23.05.2010 в 01:03.
Tomas вне форума   Ответить с цитированием
5 пользователя(ей) сказали cпасибо:
Дмитрий (16.10.2009), rave (28.02.2010), skot55 (16.12.2017)
Старый 22.10.2009, 13:13   #5
Tomas
вечная память
 
Аватар для Tomas
 

Регистрация: 19.11.2008
Адрес: СССР
Сообщений: 8,569
Сказал(а) спасибо: 1,496
Поблагодарили 6,376 раз(а) в 2,127 сообщениях
Tomas репутация неоспоримаTomas репутация неоспоримаTomas репутация неоспоримаTomas репутация неоспоримаTomas репутация неоспоримаTomas репутация неоспоримаTomas репутация неоспоримаTomas репутация неоспоримаTomas репутация неоспоримаTomas репутация неоспоримаTomas репутация неоспорима
По умолчанию VA Fantastic Disco-3 (Lossless)



Исполнитель Various Artists
Альбом Fantastic Disco-3
Жанр Disco
Содержание
01.Shocking Blue - Venus
02.Gilla - Tom Cat
03.Chilly - Doll Queen
04.Digital Emotion - Get Up
05.Scotch - Disco Band
06.Anita Ward - Ring My Bell
07.Dee D Jackson - Sos (Love To The Resque)
08.P.Lion - Happy Children
09.Carl Douglas - Kung Fu Fighting
10.The Flirts - Passion
11.Roni Griffith - Desire
12.Blondie - Heart Of Glass
13.Chilly - Sensation
14.La Bionda - Moonlight Palais
15.Steve Miller Band - Abracadabra
16.Radiorama - Yeti

Добавлена опция для восстановления 3%
EAC, FLAC, CUE, LOG, Covers
Сканы в архиве




Ссылка и пароль:
Скрытый текст (вы должны войти под своим логином или зарегистрироваться и иметь 1 сообщение(ий)):
У вас нет прав чтобы видеть скрытый текст, содержащейся здесь.


Цитата:
Exact Audio Copy V0.99 prebeta 5 from 4. May 2009

Отчёт EAC об извлечении, выполненном 22. октября 2009, 10:32

(various) / Fantastic Disco 3

Дисковод: TSSTcorpCDDVDW SH-S223F Adapter: 2 ID: 0

Режим чтения : Достоверность
Использование точного потока : Да
Отключение кэша аудио : Да
Использование указателей C2 : Нет

Коррекция смещения при чтении : 6
Способность читать области Lead-in и Lead-out : Нет
Заполнение пропущенных сэмплов тишиной : Да
Удаление блоков с тишиной в начале и конце : Нет
При вычислениях CRC использовались нулевые сэмплы : Да
Интерфейс : Встроенный Win32-интерфейс для Win NT/2000

Выходной формат : Внутренние WAV-операции
Формат сэмплов : 44.100 Гц; 16 бит; стерео


TOC извлечённого CD

Трек | Старт | Длительность | Начальный сектор | Конечный сектор
---------------------------------------------------------------------
1 | 0:00.25 | 3:08.25 | 25 | 14149
2 | 3:08.50 | 3:59.00 | 14150 | 32074
3 | 7:07.50 | 2:30.50 | 32075 | 43374
4 | 9:38.25 | 5:30.00 | 43375 | 68124
5 | 15:08.25 | 5:03.25 | 68125 | 90874
6 | 20:11.50 | 3:15.50 | 90875 | 105549
7 | 23:27.25 | 4:12.50 | 105550 | 124499
8 | 27:40.00 | 5:53.25 | 124500 | 150999
9 | 33:33.25 | 3:03.50 | 151000 | 164774
10 | 36:37.00 | 5:00.00 | 164775 | 187274
11 | 41:37.00 | 6:12.62 | 187275 | 215236
12 | 47:49.62 | 4:12.13 | 215237 | 234149
13 | 52:02.00 | 2:50.37 | 234150 | 246936
14 | 54:52.37 | 4:16.63 | 246937 | 266199
15 | 59:09.25 | 5:09.00 | 266200 | 289374
16 | 64:18.25 | 7:48.00 | 289375 | 324474


Характеристики диапазона извлечения и сообщения об ошибках

Выбранный диапазон

Имя файла C:\Documents and Settings\Vladimir\Рабочий стол\Fantastic Disco-3\(various) - Fantastic Disco 3.wav

Пиковый уровень 94.8 %
Качество диапазона 99.9 %
CRC копии A4D1F5B3
Копирование... OK

Ошибок не произошло

Конец отчёта

Последний раз редактировалось Дмитрий; 23.05.2010 в 01:26.
Tomas вне форума   Ответить с цитированием
5 пользователя(ей) сказали cпасибо:
Дмитрий (22.10.2009), olegovich (06.06.2010), skot55 (16.12.2017), spetric (04.11.2010)
Старый 21.12.2009, 11:09   #6
Tomas
вечная память
 
Аватар для Tomas
 

Регистрация: 19.11.2008
Адрес: СССР
Сообщений: 8,569
Сказал(а) спасибо: 1,496
Поблагодарили 6,376 раз(а) в 2,127 сообщениях
Tomas репутация неоспоримаTomas репутация неоспоримаTomas репутация неоспоримаTomas репутация неоспоримаTomas репутация неоспоримаTomas репутация неоспоримаTomas репутация неоспоримаTomas репутация неоспоримаTomas репутация неоспоримаTomas репутация неоспоримаTomas репутация неоспорима
По умолчанию VA Fantastic Disco-5 1995 (Lossless)



Исполнитель Various Artists
Альбом Fantastic Disco 5 1995
Жанр Disco
Содержание
01. Patric Cowley - Tech-No-Logical World
02. Rockets - If You Drive
03. Donna Summer - Our Love
04. Modern Talking - You're My Heart, You're My Soul
05. Chilly - The Race
06. Yello - Lost Again
07. Eruption - Race Track
08. Radiorama - Vampires
09. Silent Circle - Stop The Rain In The Night
10. Modern Talking - Geronimos Cadillac
11. Boney M - Happy Song (US Version)
12. Bonnie Tyler - If You Were A Woman
13. The Cars - Hello Again
14. Pet Shop Boys - Its A Sin

Добавлена опция для восстановления 3%
EAC, FLAC, CUE, LOG, Covers
Сканы в архиве




Ссылка и пароль:
Скрытый текст (вы должны войти под своим логином или зарегистрироваться и иметь 1 сообщение(ий)):
У вас нет прав чтобы видеть скрытый текст, содержащейся здесь.



Последний раз редактировалось Дмитрий; 23.05.2010 в 02:08.
Tomas вне форума   Ответить с цитированием
3 пользователя(ей) сказали cпасибо:
Дмитрий (21.12.2009), pixie (16.10.2016), skot55 (16.12.2017)
Старый 28.12.2009, 00:16   #7
Tomas
вечная память
 
Аватар для Tomas
 

Регистрация: 19.11.2008
Адрес: СССР
Сообщений: 8,569
Сказал(а) спасибо: 1,496
Поблагодарили 6,376 раз(а) в 2,127 сообщениях
Tomas репутация неоспоримаTomas репутация неоспоримаTomas репутация неоспоримаTomas репутация неоспоримаTomas репутация неоспоримаTomas репутация неоспоримаTomas репутация неоспоримаTomas репутация неоспоримаTomas репутация неоспоримаTomas репутация неоспоримаTomas репутация неоспорима
По умолчанию Various - Fantastic Disco 6 1995 (Lossless)



Исполнитель Various Artists
Альбом Fantastic Disco 6 1995
Жанр Disco
Содержание
01.Laura Branigan - Self Control
02.Bad Boys Blue - You Are Woman
03.Den Harrow - Energy Rain
04.Ottawan - D.I.S.C.O
05.Silicon Dream - Marchello The Masroianni
06.Rockets - Future Game
07.Silent Circle - Moonlight Affair
08.Space - Prison
09.Sabrina - Boys
10.Depeche Mode - Photographic
11.Dschinghis Khan - Handschi Halef Omar
12.Bananarama - Venus
13.Ken Laszlo - Tonight (Remix)
14.Boney M - Gadda Da Vida
15.Arabesque - Zanzibar

Добавлена опция для восстановления 3%
EAC, FLAC, CUE, LOG, Covers
Сканы в архиве




Ссылка и пароль:
Скрытый текст (вы должны войти под своим логином или зарегистрироваться и иметь 1 сообщение(ий)):
У вас нет прав чтобы видеть скрытый текст, содержащейся здесь.


Цитата:
Exact Audio Copy V0.99 prebeta 5 from 4. May 2009

Отчёт EAC об извлечении, выполненном 27. декабря 2009, 22:32

Various / Fantastic Disco 6

Дисковод: TSSTcorpCDDVDW SH-S223F Adapter: 2 ID: 0

Режим чтения : Достоверность
Использование точного потока : Да
Отключение кэша аудио : Да
Использование указателей C2 : Нет

Коррекция смещения при чтении : 6
Способность читать области Lead-in и Lead-out : Нет
Заполнение пропущенных сэмплов тишиной : Да
Удаление блоков с тишиной в начале и конце : Нет
При вычислениях CRC использовались нулевые сэмплы : Да
Интерфейс : Встроенный Win32-интерфейс для Win NT/2000

Выходной формат : Внутренние WAV-операции
Формат сэмплов : 44.100 Гц; 16 бит; стерео


TOC извлечённого CD

Трек | Старт | Длительность | Начальный сектор | Конечный сектор
---------------------------------------------------------------------
1 | 0:00.00 | 4:07.30 | 0 | 18554
2 | 4:07.30 | 3:58.42 | 18555 | 36446
3 | 8:05.72 | 5:12.23 | 36447 | 59869
4 | 13:18.20 | 4:59.37 | 59870 | 82331
5 | 18:17.57 | 4:31.20 | 82332 | 102676
6 | 22:49.02 | 4:53.10 | 102677 | 124661
7 | 27:42.12 | 3:31.03 | 124662 | 140489
8 | 31:13.15 | 6:22.22 | 140490 | 169161
9 | 37:35.37 | 3:57.13 | 169162 | 186949
10 | 41:32.50 | 4:54.25 | 186950 | 209024
11 | 46:27.00 | 3:49.22 | 209025 | 226221
12 | 50:16.22 | 3:51.68 | 226222 | 243614
13 | 54:08.15 | 6:55.42 | 243615 | 274781
14 | 61:03.57 | 3:01.68 | 274782 | 288424
15 | 64:05.50 | 3:40.00 | 288425 | 304924


Характеристики диапазона извлечения и сообщения об ошибках

Выбранный диапазон

Имя файла C:\Documents and Settings\Vladimir\Рабочий стол\Fantastic Disco-6 1995\Various - Fantastic Disco 6.wav

Пиковый уровень 100.0 %
Качество диапазона 100.0 %
CRC копии D116D216
Копирование... OK

Ошибок не произошло

Конец отчёта

Последний раз редактировалось Дмитрий; 23.05.2010 в 02:21.
Tomas вне форума   Ответить с цитированием
3 пользователя(ей) сказали cпасибо:
Дмитрий (28.12.2009), nocturno (14.11.2016), skot55 (16.12.2017)
Старый 28.12.2009, 02:39   #8
Tomas
вечная память
 
Аватар для Tomas
 

Регистрация: 19.11.2008
Адрес: СССР
Сообщений: 8,569
Сказал(а) спасибо: 1,496
Поблагодарили 6,376 раз(а) в 2,127 сообщениях
Tomas репутация неоспоримаTomas репутация неоспоримаTomas репутация неоспоримаTomas репутация неоспоримаTomas репутация неоспоримаTomas репутация неоспоримаTomas репутация неоспоримаTomas репутация неоспоримаTomas репутация неоспоримаTomas репутация неоспоримаTomas репутация неоспорима
По умолчанию Various - Fantastic Disco 7 1995 (Lossless)



Исполнитель Various Artists
Альбом Fantastic Disco 7 1995
Жанр Disco
Содержание
01.Ottawan - Hands Up
02.Murray Head - One Night In Bangkok
03.Donna Summer - I Feel Love
04.Bee Gees - Staying Alive
05.Joy - Touch By Touch
06.Modern Talking - You Can Win, If You Want
07.Samanta Fox - Touch Me
08.Blue System - Love Me On Rocks
09.Sabrina - My Chico
10.Tony Esposito - Kalimba De Luna
11.Radiorama - Change To Desire
12.Eruption - Leave a Light (Remix' 94)
13.Cerrone - Supernature
14.Silicon Dream - Jimmy Dean Loved Marilyn
15.Patric Cowley - Megatron Man
16.C. C. Catch - Cause You Are Young

Добавлена опция для восстановления 3%
EAC, FLAC, CUE, LOG, Covers
Сканы в архиве




Ссылка и пароль:
Скрытый текст (вы должны войти под своим логином или зарегистрироваться и иметь 1 сообщение(ий)):
У вас нет прав чтобы видеть скрытый текст, содержащейся здесь.


Цитата:
Exact Audio Copy V0.99 prebeta 5 from 4. May 2009

Отчёт EAC об извлечении, выполненном 28. декабря 2009, 1:11

Various / Fantastic Disco 7

Дисковод: TSSTcorpCDDVDW SH-S223F Adapter: 2 ID: 0

Режим чтения : Достоверность
Использование точного потока : Да
Отключение кэша аудио : Да
Использование указателей C2 : Нет

Коррекция смещения при чтении : 6
Способность читать области Lead-in и Lead-out : Нет
Заполнение пропущенных сэмплов тишиной : Да
Удаление блоков с тишиной в начале и конце : Нет
При вычислениях CRC использовались нулевые сэмплы : Да
Интерфейс : Встроенный Win32-интерфейс для Win NT/2000

Выходной формат : Внутренние WAV-операции
Формат сэмплов : 44.100 Гц; 16 бит; стерео


TOC извлечённого CD

Трек | Старт | Длительность | Начальный сектор | Конечный сектор
---------------------------------------------------------------------
1 | 0:00.00 | 4:50.69 | 0 | 21818
2 | 4:50.69 | 3:55.68 | 21819 | 39511
3 | 8:46.62 | 5:55.20 | 39512 | 66156
4 | 14:42.07 | 4:47.65 | 66157 | 87746
5 | 19:29.72 | 3:48.38 | 87747 | 104884
6 | 23:18.35 | 3:51.70 | 104885 | 122279
7 | 27:10.30 | 3:48.00 | 122280 | 139379
8 | 30:58.30 | 3:30.60 | 139380 | 155189
9 | 34:29.15 | 3:43.00 | 155190 | 171914
10 | 38:12.15 | 3:51.42 | 171915 | 189281
11 | 42:03.57 | 7:10.30 | 189282 | 221561
12 | 49:14.12 | 3:18.50 | 221562 | 236461
13 | 52:32.62 | 4:28.00 | 236462 | 256561
14 | 57:00.62 | 3:41.23 | 256562 | 273159
15 | 60:42.10 | 6:37.22 | 273160 | 302956
16 | 67:19.32 | 3:28.23 | 302957 | 318579


Характеристики диапазона извлечения и сообщения об ошибках

Выбранный диапазон

Имя файла C:\Documents and Settings\Vladimir\Рабочий стол\Fantastic Disco 7 1995\Various - Fantastic Disco 7.wav

Пиковый уровень 100.0 %
Качество диапазона 99.9 %
CRC копии FFF3C9E2
Копирование... OK

Ошибок не произошло

Конец отчёта

Последний раз редактировалось Дмитрий; 23.05.2010 в 03:12.
Tomas вне форума   Ответить с цитированием
3 пользователя(ей) сказали cпасибо:
Дмитрий (28.12.2009), skot55 (16.12.2017)
Старый 30.12.2009, 17:07   #9
Tomas
вечная память
 
Аватар для Tomas
 

Регистрация: 19.11.2008
Адрес: СССР
Сообщений: 8,569
Сказал(а) спасибо: 1,496
Поблагодарили 6,376 раз(а) в 2,127 сообщениях
Tomas репутация неоспоримаTomas репутация неоспоримаTomas репутация неоспоримаTomas репутация неоспоримаTomas репутация неоспоримаTomas репутация неоспоримаTomas репутация неоспоримаTomas репутация неоспоримаTomas репутация неоспоримаTomas репутация неоспоримаTomas репутация неоспорима
По умолчанию Fantastic Disco [Vol.4] 1995 (Lossless)



Исполнитель Various Artists
Альбом Fantastic Disco [Vol.4] 1995
Жанр Disco
Содержание
01. Donna Summer - Hot Stuff
02. Amanda Lear - Queen Of Chinatown
03. Secret Service - Flash In The Night
04. Boney M - Yong Free And Single
05. Gilla - Go Down Mainstreet
06. Chilly - Simply A Love Song
07. Rockets - Electric Delight
08. Radiorama - Aliens
09. Silent Circle - Touch In The Night
10. Arabesque - Rock Me After Midnight
11. Fancy - Bolero
12. Bonnie Tyler - Holding Out For A Hero
13. Bee Gees - Tragedy
14. Boney M - Kalimba De Luna
15. Dschinghis Khan - Rocking Son Of Dschinghis Khan

Добавлена опция для восстановления 3%
FLAC Tracks




Ссылка и пароль:
Скрытый текст (вы должны войти под своим логином или зарегистрироваться и иметь 1 сообщение(ий)):
У вас нет прав чтобы видеть скрытый текст, содержащейся здесь.



Последний раз редактировалось Дмитрий; 23.05.2010 в 01:51.
Tomas вне форума   Ответить с цитированием
3 пользователя(ей) сказали cпасибо:
Дмитрий (30.12.2009), skot55 (16.12.2017)
Старый 02.01.2010, 14:48   #10
Tomas
вечная память
 
Аватар для Tomas
 

Регистрация: 19.11.2008
Адрес: СССР
Сообщений: 8,569
Сказал(а) спасибо: 1,496
Поблагодарили 6,376 раз(а) в 2,127 сообщениях
Tomas репутация неоспоримаTomas репутация неоспоримаTomas репутация неоспоримаTomas репутация неоспоримаTomas репутация неоспоримаTomas репутация неоспоримаTomas репутация неоспоримаTomas репутация неоспоримаTomas репутация неоспоримаTomas репутация неоспоримаTomas репутация неоспорима
По умолчанию Fantastic Disco [Vol.15] 1995 (Lossless)



Исполнитель Various Artists
Альбом Fantastic Disco [Vol.15] 1995
Жанр Disco
Содержание
01. Eddy Huntington - USSR
02. Blue System - Gangster Love
03. Boney M - Gotta Go Home
04. Joy - Japanese Girls
05. Video Kids - Woodpeckers From Space
06. Patrick Cowley - Lift Off
07. Freddie Mercury - Living On My Own
08. Secret Service - L.A. Goodbye
09. Space - Save Your Love For Me
10. Bad Boys Blue - Kiss You All Over, Baby
11. Depeche Mode - Master And Servant
12. Frank Duval - A Day Like Today
13. Silver Convention - Always Another Girl
14. Valerie Dore - The Night

Добавлена опция для восстановления 3%
FLAC Tracks




Ссылка и пароль:
Скрытый текст (вы должны войти под своим логином или зарегистрироваться и иметь 1 сообщение(ий)):
У вас нет прав чтобы видеть скрытый текст, содержащейся здесь.


Tomas вне форума   Ответить с цитированием
7 пользователя(ей) сказали cпасибо:
Дмитрий (02.01.2010), Eengineer (09.12.2018), Саннини69 (27.03.2011), сафрон (22.01.2020), Rudenok (06.01.2021), skot55 (16.12.2017), villi100 (11.02.2018)
Ответ

Закладки

Метки
альбом, бесплатно, cue, disco, fantastic disco, fantastic disco (vol.8), fantastic disco 6, fantastic disco 7, fantastic disco [vol.4], fantastic disco-3, fantastic disco-5, flac, flac tracks, песни, lossless, megaupload, скачать, rapidshare, various artists, vol.1, vol.2

Опции темы
Опции просмотра

Ваши права в разделе
Вы не можете создавать новые темы
Вы не можете отвечать в темах
Вы не можете прикреплять вложения
Вы не можете редактировать свои сообщения

BB коды Вкл.
Смайлы Вкл.
[IMG] код Вкл.
HTML код Выкл.

Быстрый переход


Часовой пояс GMT +3, время: 09:30.


Powered by vBulletin® Version 3.8.2
Copyright ©2000 - 2022, Jelsoft Enterprises Ltd. Перевод: zCarot
Rambler's Top100 Республика Татарстан - Каталог сайтов