Все Тут Online
Все Тут Online
Новые сообщения
Все сообщения за последних 24 часа
Все сообщения за последнюю неделю
Расширенный Поиск

   
Меню сайта:
Главная
Форум
Чат
- Online приложения:
- Игры
- Выбор стиля:
- FAQ
- Для начинающих

Вернуться   Все Тут Online > CD (Компакт диски) Lossless - МУЗЫКА БЕЗ ПОТЕРИ КАЧЕСТВА > ПОП МУЗЫКА, Eurodance, Disco (Lossless) > Отечественная Поп музыка (lossless)

Старый 24.01.2010, 16:09   #1
Tomas
вечная память
 
Аватар для Tomas
 

Регистрация: 19.11.2008
Адрес: СССР
Сообщений: 8,569
Сказал(а) спасибо: 1,496
Поблагодарили 6,376 раз(а) в 2,127 сообщениях
Tomas репутация неоспоримаTomas репутация неоспоримаTomas репутация неоспоримаTomas репутация неоспоримаTomas репутация неоспоримаTomas репутация неоспоримаTomas репутация неоспоримаTomas репутация неоспоримаTomas репутация неоспоримаTomas репутация неоспоримаTomas репутация неоспорима
По умолчанию Дюна - Витёк 1992 (Lossless)



Исполнитель Дюна
Альбом Витёк 1992
Жанр Поп
Содержание
01. Пиво
02. Лим-Пом-По
03. Город Иванов
04. Для народа
05. Пулемёт
06. Женька
07. Анашик
08. Матрёна
09. Толстый Шейк
10. Браточки

Добавлена опция для восстановления 3%
EAC, FLAC, CUE, LOG




Ссылка и пароль:

Скрытый текст (вы должны войти под своим логином или зарегистрироваться и иметь 1 сообщение(ий)):
У вас нет прав чтобы видеть скрытый текст, содержащейся здесь.


Цитата:
Exact Audio Copy V0.99 prebeta 5 from 4. May 2009

Отчёт EAC об извлечении, выполненном 24. января 2010, 14:17

Дюна / Витек

Дисковод: TSSTcorpCDDVDW SH-S223F Adapter: 2 ID: 0

Режим чтения : Достоверность
Использование точного потока : Да
Отключение кэша аудио : Да
Использование указателей C2 : Нет

Коррекция смещения при чтении : 6
Способность читать области Lead-in и Lead-out : Нет
Заполнение пропущенных сэмплов тишиной : Да
Удаление блоков с тишиной в начале и конце : Нет
При вычислениях CRC использовались нулевые сэмплы : Да
Интерфейс : Встроенный Win32-интерфейс для Win NT/2000

Выходной формат : Внутренние WAV-операции
Формат сэмплов : 44.100 Гц; 16 бит; стерео


TOC извлечённого CD

Трек | Старт | Длительность | Начальный сектор | Конечный сектор
---------------------------------------------------------------------
1 | 0:00.00 | 3:38.13 | 0 | 16362
2 | 3:38.13 | 3:19.37 | 16363 | 31324
3 | 6:57.50 | 4:47.38 | 31325 | 52887
4 | 11:45.13 | 3:06.25 | 52888 | 66862
5 | 14:51.38 | 3:13.37 | 66863 | 81374
6 | 18:05.00 | 3:47.25 | 81375 | 98424
7 | 21:52.25 | 2:41.25 | 98425 | 110524
8 | 24:33.50 | 3:17.63 | 110525 | 125362
9 | 27:51.38 | 4:03.00 | 125363 | 143587
10 | 31:54.38 | 3:41.37 | 143588 | 160199


Характеристики диапазона извлечения и сообщения об ошибках

Выбранный диапазон

Имя файла C:\Documents and Settings\Vladimir\Рабочий стол\Дюна - Витёк 1992\Дюна - Витек.wav

Пиковый уровень 66.6 %
Качество диапазона 100.0 %
CRC копии F9CA7A65
Копирование... OK

Ошибок не произошло

Конец отчёта
Tomas вне форума   Ответить с цитированием
2 пользователя(ей) сказали cпасибо:
Дмитрий (24.01.2010), Megavolt (07.09.2012)
Старый 07.09.2012, 11:43   #2
Megavolt
Активный
 
Аватар для Megavolt
 

Регистрация: 02.09.2012
Адрес: Нижний Новгород
Сообщений: 103
Сказал(а) спасибо: 569
Поблагодарили 25 раз(а) в 17 сообщениях
Megavolt скоро придёт к известностиMegavolt скоро придёт к известности
По умолчанию

Замечательный альбом. Самый расцвет группы Дюна.
Спасибо за качество
Megavolt вне форума   Ответить с цитированием
Старый 14.05.2021, 17:49   #3
Adrian_Q
Активный
 

Регистрация: 04.04.2020
Сообщений: 1
Сказал(а) спасибо: 0
Поблагодарили 0 раз(а) в 0 сообщениях
Adrian_Q на пути к лучшему
По умолчанию

Есть такая катушка, с фирменным джинглом "Студии Союз". В дописку, кто бы мог подумать, Наталья Сенчукова
Adrian_Q вне форума   Ответить с цитированием
Ответ

Закладки

Метки
витёк, альбом, бесплатно, cue, flac, поп, lossless, megaupload, скачать, дюна

Опции темы
Опции просмотра

Ваши права в разделе
Вы не можете создавать новые темы
Вы не можете отвечать в темах
Вы не можете прикреплять вложения
Вы не можете редактировать свои сообщения

BB коды Вкл.
Смайлы Вкл.
[IMG] код Вкл.
HTML код Выкл.

Быстрый переход


Часовой пояс GMT +3, время: 19:18.


Powered by vBulletin® Version 3.8.2
Copyright ©2000 - 2022, Jelsoft Enterprises Ltd. Перевод: zCarot
Rambler's Top100 Республика Татарстан - Каталог сайтов