Все Тут Online
Все Тут Online
Новые сообщения
Все сообщения за последних 24 часа
Все сообщения за последнюю неделю
Расширенный Поиск

   
Меню сайта:
Главная
Форум
Чат
- Online приложения:
- Игры
- Выбор стиля:
- FAQ
- Для начинающих

Вернуться   Все Тут Online > CD (Компакт диски) Lossless - МУЗЫКА БЕЗ ПОТЕРИ КАЧЕСТВА > ШАНСОН, АВТОРСКАЯ и ВОЕННАЯ ПЕСНЯ (Lossless) > Отечественный шансон (lossless)

Старый 17.01.2010, 09:37   #1
Tomas
вечная память
 
Аватар для Tomas
 

Регистрация: 19.11.2008
Адрес: СССР
Сообщений: 8,569
Сказал(а) спасибо: 1,496
Поблагодарили 6,376 раз(а) в 2,127 сообщениях
Tomas репутация неоспоримаTomas репутация неоспоримаTomas репутация неоспоримаTomas репутация неоспоримаTomas репутация неоспоримаTomas репутация неоспоримаTomas репутация неоспоримаTomas репутация неоспоримаTomas репутация неоспоримаTomas репутация неоспоримаTomas репутация неоспорима
По умолчанию Вика Цыганова - Солнце (1998) Lossless



Исполнитель Вика Цыганова
Альбом Солнце 1998
Жанр Шансон
Содержание
01.Солнце
02.Где ты
03.Дед мороз
04.Одинокая
05.Держись моряк
06.Бродяга
07.Золото
08.Северный ветер
09.Мы едем
10.Колокол

Добавлена опция для восстановления 3%
EAC, FLAC, CUE, LOG, Covers
Сканы в архиве






Ссылка и пароль:

Скрытый текст (вы должны зарегистрироваться или войти под своим логином):
У вас нет прав чтобы видеть скрытый текст, содержащейся здесь.



Цитата:
Exact Audio Copy V0.99 prebeta 5 from 4. May 2009

Отчёт EAC об извлечении, выполненном 17. января 2010, 8:15

Вика Цыганова / Солнце

Дисковод: TSSTcorpCDDVDW SH-S223F Adapter: 2 ID: 0

Режим чтения : Достоверность
Использование точного потока : Да
Отключение кэша аудио : Да
Использование указателей C2 : Нет

Коррекция смещения при чтении : 6
Способность читать области Lead-in и Lead-out : Нет
Заполнение пропущенных сэмплов тишиной : Да
Удаление блоков с тишиной в начале и конце : Нет
При вычислениях CRC использовались нулевые сэмплы : Да
Интерфейс : Встроенный Win32-интерфейс для Win NT/2000

Выходной формат : Внутренние WAV-операции
Формат сэмплов : 44.100 Гц; 16 бит; стерео


TOC извлечённого CD

Трек | Старт | Длительность | Начальный сектор | Конечный сектор
---------------------------------------------------------------------
1 | 0:00.00 | 4:13.64 | 0 | 19038
2 | 4:13.64 | 3:31.43 | 19039 | 34906
3 | 7:45.32 | 3:19.62 | 34907 | 49893
4 | 11:05.19 | 3:25.08 | 49894 | 65276
5 | 14:30.27 | 3:54.69 | 65277 | 82895
6 | 18:25.21 | 3:30.56 | 82896 | 98701
7 | 21:56.02 | 3:19.65 | 98702 | 113691
8 | 25:15.67 | 5:00.55 | 113692 | 136246
9 | 30:16.47 | 3:28.16 | 136247 | 151862
10 | 33:44.63 | 3:46.66 | 151863 | 168878


Характеристики диапазона извлечения и сообщения об ошибках

Выбранный диапазон

Имя файла C:\Documents and Settings\Vladimir\Рабочий стол\Вика Цыганова - Солнце 1998\Вика Цыганова - Солнце.wav

Пиковый уровень 96.6 %
Качество диапазона 99.9 %
CRC копии 7825F3C3
Копирование... OK

Ошибок не произошло

Конец отчёта

Последний раз редактировалось Варнак; 14.06.2010 в 17:33.
Tomas вне форума   Ответить с цитированием
8 пользователя(ей) сказали cпасибо:
altar (08.03.2010), Grigorij (04.03.2011), insomen (02.03.2014), mlkn658776jvg (25.07.2015), nic111 (13.12.2018), nptn55 (27.01.2015), vlf (18.01.2010)
Старый 04.03.2011, 00:05   #2
Дмитрий
Администратор
 
Аватар для Дмитрий
 
Турниров выиграно: 1

Регистрация: 12.12.2008
Адрес: Москва прошлого тысячелетия.
Сообщений: 185,156
Сказал(а) спасибо: 36,379
Поблагодарили 197,654 раз(а) в 72,697 сообщениях
Дмитрий репутация неоспоримаДмитрий репутация неоспоримаДмитрий репутация неоспоримаДмитрий репутация неоспоримаДмитрий репутация неоспоримаДмитрий репутация неоспоримаДмитрий репутация неоспоримаДмитрий репутация неоспоримаДмитрий репутация неоспоримаДмитрий репутация неоспоримаДмитрий репутация неоспорима
По умолчанию

Перемещено в свободный доступ
Команда сайта желает Вам приятного прослушивания!
Дмитрий вне форума   Ответить с цитированием
Старый 06.02.2012, 09:15   #3
Дмитрий
Администратор
 
Аватар для Дмитрий
 
Турниров выиграно: 1

Регистрация: 12.12.2008
Адрес: Москва прошлого тысячелетия.
Сообщений: 185,156
Сказал(а) спасибо: 36,379
Поблагодарили 197,654 раз(а) в 72,697 сообщениях
Дмитрий репутация неоспоримаДмитрий репутация неоспоримаДмитрий репутация неоспоримаДмитрий репутация неоспоримаДмитрий репутация неоспоримаДмитрий репутация неоспоримаДмитрий репутация неоспоримаДмитрий репутация неоспоримаДмитрий репутация неоспоримаДмитрий репутация неоспоримаДмитрий репутация неоспорима
По умолчанию

Ссылка обновлена.
Дмитрий вне форума   Ответить с цитированием
Старый 28.02.2014, 12:01   #4
Дмитрий
Администратор
 
Аватар для Дмитрий
 
Турниров выиграно: 1

Регистрация: 12.12.2008
Адрес: Москва прошлого тысячелетия.
Сообщений: 185,156
Сказал(а) спасибо: 36,379
Поблагодарили 197,654 раз(а) в 72,697 сообщениях
Дмитрий репутация неоспоримаДмитрий репутация неоспоримаДмитрий репутация неоспоримаДмитрий репутация неоспоримаДмитрий репутация неоспоримаДмитрий репутация неоспоримаДмитрий репутация неоспоримаДмитрий репутация неоспоримаДмитрий репутация неоспоримаДмитрий репутация неоспоримаДмитрий репутация неоспорима
По умолчанию

обновлено
Дмитрий вне форума   Ответить с цитированием
Пользователь сказал cпасибо:
insomen (03.03.2014)
Старый 23.11.2021, 01:32   #5
Дмитрий
Администратор
 
Аватар для Дмитрий
 
Турниров выиграно: 1

Регистрация: 12.12.2008
Адрес: Москва прошлого тысячелетия.
Сообщений: 185,156
Сказал(а) спасибо: 36,379
Поблагодарили 197,654 раз(а) в 72,697 сообщениях
Дмитрий репутация неоспоримаДмитрий репутация неоспоримаДмитрий репутация неоспоримаДмитрий репутация неоспоримаДмитрий репутация неоспоримаДмитрий репутация неоспоримаДмитрий репутация неоспоримаДмитрий репутация неоспоримаДмитрий репутация неоспоримаДмитрий репутация неоспоримаДмитрий репутация неоспорима
По умолчанию

__
Дмитрий вне форума   Ответить с цитированием
Ответ

Закладки

Метки
вика цыганова, альбом, бесплатно, cue, flac, lossless, megaupload, скачать, солнце, шансон

Опции темы
Опции просмотра

Ваши права в разделе
Вы не можете создавать новые темы
Вы не можете отвечать в темах
Вы не можете прикреплять вложения
Вы не можете редактировать свои сообщения

BB коды Вкл.
Смайлы Вкл.
[IMG] код Вкл.
HTML код Выкл.

Быстрый переход


Часовой пояс GMT +3, время: 19:06.


Powered by vBulletin® Version 3.8.2
Copyright ©2000 - 2022, Jelsoft Enterprises Ltd. Перевод: zCarot
Rambler's Top100 Республика Татарстан - Каталог сайтов