Все Тут Online
Все Тут Online
Новые сообщения
Все сообщения за последних 24 часа
Все сообщения за последнюю неделю
Расширенный Поиск

   
Меню сайта:
Главная
Форум
Чат
- Online приложения:
- Игры
- Выбор стиля:
- FAQ
- Для начинающих

Вернуться   Все Тут Online > CD (Компакт диски) Lossless - МУЗЫКА БЕЗ ПОТЕРИ КАЧЕСТВА > ШАНСОН, АВТОРСКАЯ и ВОЕННАЯ ПЕСНЯ (Lossless) > Отечественный шансон (lossless)

Старый 14.01.2010, 14:04   #1
Tomas
вечная память
 
Аватар для Tomas
 

Регистрация: 19.11.2008
Адрес: СССР
Сообщений: 8,569
Сказал(а) спасибо: 1,496
Поблагодарили 6,376 раз(а) в 2,127 сообщениях
Tomas репутация неоспоримаTomas репутация неоспоримаTomas репутация неоспоримаTomas репутация неоспоримаTomas репутация неоспоримаTomas репутация неоспоримаTomas репутация неоспоримаTomas репутация неоспоримаTomas репутация неоспоримаTomas репутация неоспоримаTomas репутация неоспорима
По умолчанию Вика Цыганова - Эх, не грех... 1995 (Lossless)



Исполнитель Вика Цыганова
Альбом Эх, не грех... 1995
Жанр Шансон
Содержание
01.Когда я вернусь в Россию
02.Волга-матушка
03.Эх, не грех...
04.Красная калина
05.Сирень
06.Атаман
07.Деньги
08.Сочи
09.Осень
10.Счастье было
11.Париж
12.Грешница
13.Девятый круг

Добавлена опция для восстановления 3%
EAC, FLAC, CUE, LOG, Covers
Сканы в архиве




Ссылка и пароль:

Скрытый текст (вы должны зарегистрироваться или войти под своим логином):
У вас нет прав чтобы видеть скрытый текст, содержащейся здесь.



Цитата:
Exact Audio Copy V0.99 prebeta 5 from 4. May 2009

Отчёт EAC об извлечении, выполненном 14. января 2010, 12:31

Вика Цыганова / Эх, не грех...

Дисковод: TSSTcorpCDDVDW SH-S223F Adapter: 2 ID: 0

Режим чтения : Достоверность
Использование точного потока : Да
Отключение кэша аудио : Да
Использование указателей C2 : Нет

Коррекция смещения при чтении : 6
Способность читать области Lead-in и Lead-out : Нет
Заполнение пропущенных сэмплов тишиной : Да
Удаление блоков с тишиной в начале и конце : Нет
При вычислениях CRC использовались нулевые сэмплы : Да
Интерфейс : Встроенный Win32-интерфейс для Win NT/2000

Выходной формат : Внутренние WAV-операции
Формат сэмплов : 44.100 Гц; 16 бит; стерео


TOC извлечённого CD

Трек | Старт | Длительность | Начальный сектор | Конечный сектор
---------------------------------------------------------------------
1 | 0:00.70 | 4:51.30 | 70 | 21924
2 | 4:52.25 | 3:39.20 | 21925 | 38369
3 | 8:31.45 | 5:15.32 | 38370 | 62026
4 | 13:47.02 | 5:04.33 | 62027 | 84859
5 | 18:51.35 | 5:05.57 | 84860 | 107791
6 | 23:57.17 | 4:21.68 | 107792 | 127434
7 | 28:19.10 | 3:13.55 | 127435 | 141964
8 | 31:32.65 | 4:11.55 | 141965 | 160844
9 | 35:44.45 | 4:56.20 | 160845 | 183064
10 | 40:40.65 | 3:45.50 | 183065 | 199989
11 | 44:26.40 | 4:21.52 | 199990 | 219616
12 | 48:48.17 | 4:05.28 | 219617 | 238019
13 | 52:53.45 | 3:56.55 | 238020 | 255774


Характеристики диапазона извлечения и сообщения об ошибках

Выбранный диапазон

Имя файла C:\Documents and Settings\Vladimir\Рабочий стол\Вика Цыганова - Эх, не грех... 1995\Вика Цыганова - Эх, не грех....wav

Пиковый уровень 89.1 %
Качество диапазона 99.9 %
CRC копии 3CAE5EE9
Копирование... OK

Ошибок не произошло

Последний раз редактировалось Варнак; 14.06.2010 в 17:36.
Tomas вне форума   Ответить с цитированием
3 пользователя(ей) сказали cпасибо:
Алекс56 (18.05.2015), insomen (03.03.2014)
Старый 03.03.2011, 23:59   #2
Дмитрий
Администратор
 
Аватар для Дмитрий
 
Турниров выиграно: 1

Регистрация: 12.12.2008
Адрес: Москва прошлого тысячелетия.
Сообщений: 185,045
Сказал(а) спасибо: 36,360
Поблагодарили 197,564 раз(а) в 72,650 сообщениях
Дмитрий репутация неоспоримаДмитрий репутация неоспоримаДмитрий репутация неоспоримаДмитрий репутация неоспоримаДмитрий репутация неоспоримаДмитрий репутация неоспоримаДмитрий репутация неоспоримаДмитрий репутация неоспоримаДмитрий репутация неоспоримаДмитрий репутация неоспоримаДмитрий репутация неоспорима
По умолчанию

Перемещено в свободный доступ
Команда сайта желает Вам приятного прослушивания!
Дмитрий вне форума   Ответить с цитированием
Старый 06.02.2012, 09:17   #3
Дмитрий
Администратор
 
Аватар для Дмитрий
 
Турниров выиграно: 1

Регистрация: 12.12.2008
Адрес: Москва прошлого тысячелетия.
Сообщений: 185,045
Сказал(а) спасибо: 36,360
Поблагодарили 197,564 раз(а) в 72,650 сообщениях
Дмитрий репутация неоспоримаДмитрий репутация неоспоримаДмитрий репутация неоспоримаДмитрий репутация неоспоримаДмитрий репутация неоспоримаДмитрий репутация неоспоримаДмитрий репутация неоспоримаДмитрий репутация неоспоримаДмитрий репутация неоспоримаДмитрий репутация неоспоримаДмитрий репутация неоспорима
По умолчанию

Ссылку обновил.
Дмитрий вне форума   Ответить с цитированием
Старый 28.02.2014, 19:40   #4
Дмитрий
Администратор
 
Аватар для Дмитрий
 
Турниров выиграно: 1

Регистрация: 12.12.2008
Адрес: Москва прошлого тысячелетия.
Сообщений: 185,045
Сказал(а) спасибо: 36,360
Поблагодарили 197,564 раз(а) в 72,650 сообщениях
Дмитрий репутация неоспоримаДмитрий репутация неоспоримаДмитрий репутация неоспоримаДмитрий репутация неоспоримаДмитрий репутация неоспоримаДмитрий репутация неоспоримаДмитрий репутация неоспоримаДмитрий репутация неоспоримаДмитрий репутация неоспоримаДмитрий репутация неоспоримаДмитрий репутация неоспорима
По умолчанию

обновлено
Дмитрий вне форума   Ответить с цитированием
Пользователь сказал cпасибо:
insomen (03.03.2014)
Старый 23.11.2021, 01:26   #5
Дмитрий
Администратор
 
Аватар для Дмитрий
 
Турниров выиграно: 1

Регистрация: 12.12.2008
Адрес: Москва прошлого тысячелетия.
Сообщений: 185,045
Сказал(а) спасибо: 36,360
Поблагодарили 197,564 раз(а) в 72,650 сообщениях
Дмитрий репутация неоспоримаДмитрий репутация неоспоримаДмитрий репутация неоспоримаДмитрий репутация неоспоримаДмитрий репутация неоспоримаДмитрий репутация неоспоримаДмитрий репутация неоспоримаДмитрий репутация неоспоримаДмитрий репутация неоспоримаДмитрий репутация неоспоримаДмитрий репутация неоспорима
По умолчанию

++
Дмитрий вне форума   Ответить с цитированием
Ответ

Закладки

Метки
вика цыганова, альбом, бесплатно, cue, flac, lossless, megaupload, скачать, эх не грех..., шансон

Опции темы
Опции просмотра

Ваши права в разделе
Вы не можете создавать новые темы
Вы не можете отвечать в темах
Вы не можете прикреплять вложения
Вы не можете редактировать свои сообщения

BB коды Вкл.
Смайлы Вкл.
[IMG] код Вкл.
HTML код Выкл.

Быстрый переход


Часовой пояс GMT +3, время: 09:23.


Powered by vBulletin® Version 3.8.2
Copyright ©2000 - 2022, Jelsoft Enterprises Ltd. Перевод: zCarot
Rambler's Top100 Республика Татарстан - Каталог сайтов