Все Тут Online
Все Тут Online
Новые сообщения
Все сообщения за последних 24 часа
Все сообщения за последнюю неделю
Расширенный Поиск

   
Меню сайта:
Главная
Форум
Чат
- Online приложения:
- Игры
- Выбор стиля:
- FAQ
- Для начинающих

Вернуться   Все Тут Online > CD (Компакт диски) Lossless - МУЗЫКА БЕЗ ПОТЕРИ КАЧЕСТВА > RETRO, CLASSIC (Lossless) > Русская музыка Ретро (lossless)

Старый 18.01.2010, 16:21   #1
Tomas
вечная память
 
Аватар для Tomas
 

Регистрация: 19.11.2008
Адрес: СССР
Сообщений: 8,569
Сказал(а) спасибо: 1,496
Поблагодарили 6,376 раз(а) в 2,127 сообщениях
Tomas репутация неоспоримаTomas репутация неоспоримаTomas репутация неоспоримаTomas репутация неоспоримаTomas репутация неоспоримаTomas репутация неоспоримаTomas репутация неоспоримаTomas репутация неоспоримаTomas репутация неоспоримаTomas репутация неоспоримаTomas репутация неоспорима
По умолчанию Russian Collection (Лучшие песни 1969-1980) 1995 (Lossless)



Исполнитель Various Artists
Альбом Russian Collection (Лучшие песни 1969-1980) 1995
Жанр Ретро
Содержание
01.Весёлые ребята - Отчего
02.Лейся, песня - Песенка про сапожника
03.Синяя птица - Ты мне не снишься
04.Весёлые ребята - Алёшкина любовь
05.Цветы - Честно говоря
06.Синяя птица - Клён
07.Лейся, песня - Где же ты была?
08.Цветы - Звёздочка моя ясная
09.Самоцветы - Вся жизнь впереди
10.Самоцветы - Добрые приметы
11.Поющие сердца - Вот какая беда
12.Ариэль - Зимы и вёсны
13.Здравствуй, песня - Синяя песня
14.Поющие гитары - Сумерки
15.Ариэль - Уходишь ты...
16.Поющие сердца - Листья закружат
17.Здравствуй, песня - Не обещай
18.Поющие гитары - Синяя птица

Добавлена опция для восстановления 3%
EAC, FLAC, CUE, LOG, Covers
Сканы в архиве




Ссылка и пароль:

Скрытый текст (вы должны войти под своим логином или зарегистрироваться и иметь 1 сообщение(ий)):
У вас нет прав чтобы видеть скрытый текст, содержащейся здесь.


Цитата:
Exact Audio Copy V0.99 prebeta 5 from 4. May 2009

Отчёт EAC об извлечении, выполненном 18. января 2010, 13:45

Russian Collection / Лучшие песни 1969-1980 В.И.А. 70-х

Дисковод: TSSTcorpCDDVDW SH-S223F Adapter: 2 ID: 0

Режим чтения : Достоверность
Использование точного потока : Да
Отключение кэша аудио : Да
Использование указателей C2 : Нет

Коррекция смещения при чтении : 6
Способность читать области Lead-in и Lead-out : Нет
Заполнение пропущенных сэмплов тишиной : Да
Удаление блоков с тишиной в начале и конце : Нет
При вычислениях CRC использовались нулевые сэмплы : Да
Интерфейс : Встроенный Win32-интерфейс для Win NT/2000

Выходной формат : Внутренние WAV-операции
Формат сэмплов : 44.100 Гц; 16 бит; стерео


TOC извлечённого CD

Трек | Старт | Длительность | Начальный сектор | Конечный сектор
---------------------------------------------------------------------
1 | 0:00.00 | 3:13.37 | 0 | 14511
2 | 3:13.37 | 3:02.40 | 14512 | 28201
3 | 6:16.02 | 3:00.43 | 28202 | 41744
4 | 9:16.45 | 2:23.60 | 41745 | 52529
5 | 11:40.30 | 3:45.47 | 52530 | 69451
6 | 15:26.02 | 2:58.60 | 69452 | 82861
7 | 18:24.62 | 3:28.03 | 82862 | 98464
8 | 21:52.65 | 5:07.20 | 98465 | 121509
9 | 27:00.10 | 3:08.32 | 121510 | 135641
10 | 30:08.42 | 3:31.60 | 135642 | 151526
11 | 33:40.27 | 3:17.48 | 151527 | 166349
12 | 36:58.00 | 3:03.67 | 166350 | 180141
13 | 40:01.67 | 2:44.55 | 180142 | 192496
14 | 42:46.47 | 4:08.38 | 192497 | 211134
15 | 46:55.10 | 4:37.72 | 211135 | 231981
16 | 51:33.07 | 3:10.00 | 231982 | 246231
17 | 54:43.07 | 3:15.45 | 246232 | 260901
18 | 57:58.52 | 2:16.33 | 260902 | 271134


Характеристики диапазона извлечения и сообщения об ошибках

Выбранный диапазон

Имя файла C:\Documents and Settings\Vladimir\Рабочий стол\Russian Collection (Лучшие песни 1969-1980) 1995\Russian Collection - Лучшие песни 1969-1980 В.И.А. 70-х.wav

Пиковый уровень 93.0 %
Качество диапазона 100.0 %
CRC копии 95EF11EE
Копирование... OK

Ошибок не произошло

Конец отчёта
Tomas вне форума   Ответить с цитированием
4 пользователя(ей) сказали cпасибо:
Дмитрий (19.01.2010), egodoc (06.08.2018), Igor(B) (19.01.2010), Unker (18.01.2010)
Старый 19.01.2010, 14:42   #2
Igor(B)
Активный
 

Регистрация: 12.03.2009
Адрес: Toronto, Canada
Сообщений: 39
Сказал(а) спасибо: 55
Поблагодарили 48 раз(а) в 23 сообщениях
Igor(B) скоро придёт к известностиIgor(B) скоро придёт к известности
Отправить сообщение для Igor(B) с помощью Skype™
По умолчанию

Володя. поправь содержание:

(01) Весёлые ребята - Отчего
(02) Лейся, песня - Песенка про сапожника
(03) Синяя птица - Ты мне не снишься
(04) Весёлые ребята - Алёшкина любовь
(05) Цветы - Честно говоря
(06) Синяя птица - Клён
(07) Лейся, песня - Где же ты была?
(08) Цветы - Звёздочка моя ясная
(09) Самоцветы - Вся жизнь впереди
(10) Самоцветы - Добрые приметы
(11) Поющие сердца - Вот какая беда
(12) Ариэль - Зимы и вёсны
(13) Здравствуй, песня - Синяя песня
(14) Поющие гитары - Сумерки
(15) Ариэль - Уходишь ты...
(16) Поющие сердца - Листья закружат
(17) Здравствуй, песня - Не обещай
(18) Поющие гитары - Синяя птица
Igor(B) вне форума   Ответить с цитированием
Пользователь сказал cпасибо:
nvB (29.01.2011)
Старый 19.01.2010, 14:47   #3
Tomas
вечная память
 
Аватар для Tomas
 

Регистрация: 19.11.2008
Адрес: СССР
Сообщений: 8,569
Сказал(а) спасибо: 1,496
Поблагодарили 6,376 раз(а) в 2,127 сообщениях
Tomas репутация неоспоримаTomas репутация неоспоримаTomas репутация неоспоримаTomas репутация неоспоримаTomas репутация неоспоримаTomas репутация неоспоримаTomas репутация неоспоримаTomas репутация неоспоримаTomas репутация неоспоримаTomas репутация неоспоримаTomas репутация неоспорима
По умолчанию

Игорь, спасибо за бдительность! Поправил.
Tomas вне форума   Ответить с цитированием
Старый 06.01.2011, 14:26   #4
Robert
Активный
 

Регистрация: 06.01.2011
Сообщений: 5
Сказал(а) спасибо: 1
Поблагодарили 1 раз в 1 сообщении
Robert на пути к лучшему
По умолчанию

Спасибо)))есть на кассете...детство,молодость)))
Robert вне форума   Ответить с цитированием
Старый 06.01.2011, 14:34   #5
Алекс. Иванович
Гость
 

Сообщений: n/a
По умолчанию

Robert, Человек который поделился
этими записями Рано по болезни ушёл из жизни
Он являлся Админ. и создателем этого форума
Поэтому Все благодарности ему
  Ответить с цитированием
Старый 12.03.2018, 05:43   #6
XLLYZ-58
Активный
 

Регистрация: 07.01.2012
Сообщений: 94
Сказал(а) спасибо: 17
Поблагодарили 18 раз(а) в 11 сообщениях
XLLYZ-58 скоро придёт к известностиXLLYZ-58 скоро придёт к известности
По умолчанию

Обновите пожалуйста
XLLYZ-58 на форуме   Ответить с цитированием
Старый 06.08.2018, 22:25   #7
egodoc
Активный
 
Аватар для egodoc
 

Регистрация: 30.01.2015
Сообщений: 2
Сказал(а) спасибо: 1
Поблагодарили 1 раз в 1 сообщении
egodoc на пути к лучшему
По умолчанию

хорошая подборка жаль что ссылки дохлые
egodoc вне форума   Ответить с цитированием
Старый 15.05.2021, 23:00   #8
Sergoo57
Активный
 

Регистрация: 04.05.2021
Сообщений: 11
Сказал(а) спасибо: 0
Поблагодарили 4 раз(а) в 4 сообщениях
Sergoo57 на пути к лучшему
По умолчанию

Спасибо!
Sergoo57 вне форума   Ответить с цитированием
Ответ

Закладки

Метки
бесплатно, cue, ретро, flac, lossless, megaupload, скачать, russian collection, various artists

Опции темы
Опции просмотра

Ваши права в разделе
Вы не можете создавать новые темы
Вы не можете отвечать в темах
Вы не можете прикреплять вложения
Вы не можете редактировать свои сообщения

BB коды Вкл.
Смайлы Вкл.
[IMG] код Вкл.
HTML код Выкл.

Быстрый переход


Часовой пояс GMT +3, время: 09:08.


Powered by vBulletin® Version 3.8.2
Copyright ©2000 - 2022, Jelsoft Enterprises Ltd. Перевод: zCarot
Rambler's Top100 Республика Татарстан - Каталог сайтов