Все Тут Online
Все Тут Online
Новые сообщения
Все сообщения за последних 24 часа
Все сообщения за последнюю неделю
Расширенный Поиск

   
Меню сайта:
Главная
Форум
Чат
- Online приложения:
- Игры
- Выбор стиля:
- FAQ
- Для начинающих

Вернуться   Все Тут Online > CD (Компакт диски) Lossless - МУЗЫКА БЕЗ ПОТЕРИ КАЧЕСТВА > ШАНСОН, АВТОРСКАЯ и ВОЕННАЯ ПЕСНЯ (Lossless) > Отечественный шансон (lossless)

Старый 03.12.2009, 16:32   #1
Tomas
вечная память
 
Аватар для Tomas
 

Регистрация: 19.11.2008
Адрес: СССР
Сообщений: 8,569
Сказал(а) спасибо: 1,496
Поблагодарили 6,376 раз(а) в 2,127 сообщениях
Tomas репутация неоспоримаTomas репутация неоспоримаTomas репутация неоспоримаTomas репутация неоспоримаTomas репутация неоспоримаTomas репутация неоспоримаTomas репутация неоспоримаTomas репутация неоспоримаTomas репутация неоспоримаTomas репутация неоспоримаTomas репутация неоспорима
По умолчанию Лесоповал - Лучшие песни 2008 (Lossless)



Исполнитель Лесоповал
Альбом Лучшие песни 2008
Жанр Шансон
Содержание
01.Мама-улица
02.Посидим пацаны
03.Ветер с Колымы
04.На повороте
05.Человек из тюрьмы
06.Я куплю тебе дом
07.Сибирские реки
08.Был пацан
09.Бегут вагончики
10.Анаша
11.Соловьи
12.Селезень
13.Когда я приду
14.Ветка мимозы
15.Столыпинский вагон
16.Первая девочка
17.Первый срок
18.Сентиментальный вальс
19.Личное свидание
20.Скоро мне выходить

Добавлена опция для восстановления 3%
EAC, FLAC, CUE. LOG, Covers
Сканы в архиве




Ссылка и пароль:
Скрытый текст (вы должны зарегистрироваться или войти под своим логином):
У вас нет прав чтобы видеть скрытый текст, содержащейся здесь.


Цитата:
Exact Audio Copy V0.99 prebeta 5 from 4. May 2009

Отчёт EAC об извлечении, выполненном 3. декабря 2009, 14:48

Лесоповал / Лучшие песни

Дисковод: TSSTcorpCDDVDW SH-S223F Adapter: 2 ID: 0

Режим чтения : Достоверность
Использование точного потока : Да
Отключение кэша аудио : Да
Использование указателей C2 : Нет

Коррекция смещения при чтении : 6
Способность читать области Lead-in и Lead-out : Нет
Заполнение пропущенных сэмплов тишиной : Да
Удаление блоков с тишиной в начале и конце : Нет
При вычислениях CRC использовались нулевые сэмплы : Да
Интерфейс : Встроенный Win32-интерфейс для Win NT/2000

Выходной формат : Внутренние WAV-операции
Формат сэмплов : 44.100 Гц; 16 бит; стерео


TOC извлечённого CD

Трек | Старт | Длительность | Начальный сектор | Конечный сектор
---------------------------------------------------------------------
1 | 0:00.00 | 3:32.15 | 0 | 15914
2 | 3:32.15 | 3:58.23 | 15915 | 33787
3 | 7:30.38 | 4:11.09 | 33788 | 52621
4 | 11:41.47 | 3:14.42 | 52622 | 67213
5 | 14:56.14 | 2:52.55 | 67214 | 80168
6 | 17:48.69 | 4:14.56 | 80169 | 99274
7 | 22:03.50 | 3:43.54 | 99275 | 116053
8 | 25:47.29 | 4:06.01 | 116054 | 134504
9 | 29:53.30 | 3:16.45 | 134505 | 149249
10 | 33:10.00 | 4:39.61 | 149250 | 170235
11 | 37:49.61 | 4:02.57 | 170236 | 188442
12 | 41:52.43 | 4:38.25 | 188443 | 209317
13 | 46:30.68 | 3:29.17 | 209318 | 225009
14 | 50:00.10 | 3:33.45 | 225010 | 241029
15 | 53:33.55 | 3:21.60 | 241030 | 256164
16 | 56:55.40 | 4:38.18 | 256165 | 277032
17 | 61:33.58 | 2:50.03 | 277033 | 289785
18 | 64:23.61 | 4:22.69 | 289786 | 309504
19 | 68:46.55 | 3:21.04 | 309505 | 324583
20 | 72:07.59 | 3:14.08 | 324584 | 339141


Характеристики диапазона извлечения и сообщения об ошибках

Выбранный диапазон

Имя файла C:\Documents and Settings\Vladimir\Рабочий стол\Лесоповал - Лучшие песни 2008\Лесоповал - Лучшие песни.wav

Пиковый уровень 100.0 %
Качество диапазона 100.0 %
CRC копии 5421A9B0
Копирование... OK

Ошибок не произошло

Конец отчёта

Последний раз редактировалось vlf; 04.12.2009 в 06:27.
Tomas вне форума   Ответить с цитированием
2 пользователя(ей) сказали cпасибо:
artemzhyla (27.06.2013), vlf (04.12.2009)
Старый 06.09.2010, 21:50   #2
qwer
Активный
 

Регистрация: 06.09.2010
Сообщений: 3
Сказал(а) спасибо: 0
Поблагодарили 0 раз(а) в 0 сообщениях
qwer на пути к лучшему
По умолчанию

Спасибо!
qwer вне форума   Ответить с цитированием
Старый 28.04.2021, 23:51   #3
Дмитрий
Администратор
 
Аватар для Дмитрий
 
Турниров выиграно: 1

Регистрация: 12.12.2008
Адрес: Москва прошлого тысячелетия.
Сообщений: 184,781
Сказал(а) спасибо: 36,324
Поблагодарили 197,296 раз(а) в 72,528 сообщениях
Дмитрий репутация неоспоримаДмитрий репутация неоспоримаДмитрий репутация неоспоримаДмитрий репутация неоспоримаДмитрий репутация неоспоримаДмитрий репутация неоспоримаДмитрий репутация неоспоримаДмитрий репутация неоспоримаДмитрий репутация неоспоримаДмитрий репутация неоспоримаДмитрий репутация неоспорима
По умолчанию

++
Дмитрий вне форума   Ответить с цитированием
Ответ

Закладки

Метки
альбом, бесплатно, cue, лучшие песни, лесоповал, flac, lossless, скачать, rapidshare, шансон

Опции темы
Опции просмотра

Ваши права в разделе
Вы не можете создавать новые темы
Вы не можете отвечать в темах
Вы не можете прикреплять вложения
Вы не можете редактировать свои сообщения

BB коды Вкл.
Смайлы Вкл.
[IMG] код Вкл.
HTML код Выкл.

Быстрый переход


Часовой пояс GMT +3, время: 11:05.


Powered by vBulletin® Version 3.8.2
Copyright ©2000 - 2022, Jelsoft Enterprises Ltd. Перевод: zCarot
Rambler's Top100 Республика Татарстан - Каталог сайтов