Все Тут Online
Все Тут Online
Новые сообщения
Все сообщения за последних 24 часа
Все сообщения за последнюю неделю
Расширенный Поиск

   
Меню сайта:
Главная
Форум
Чат
- Online приложения:
- Игры
- Выбор стиля:
- FAQ
- Для начинающих

Вернуться   Все Тут Online > CD (Компакт диски) Lossless - МУЗЫКА БЕЗ ПОТЕРИ КАЧЕСТВА > ШАНСОН, АВТОРСКАЯ и ВОЕННАЯ ПЕСНЯ (Lossless) > Отечественный шансон (lossless)

Старый 18.09.2009, 20:52   #1
Tomas
вечная память
 
Аватар для Tomas
 

Регистрация: 19.11.2008
Адрес: СССР
Сообщений: 8,569
Сказал(а) спасибо: 1,496
Поблагодарили 6,376 раз(а) в 2,127 сообщениях
Tomas репутация неоспоримаTomas репутация неоспоримаTomas репутация неоспоримаTomas репутация неоспоримаTomas репутация неоспоримаTomas репутация неоспоримаTomas репутация неоспоримаTomas репутация неоспоримаTomas репутация неоспоримаTomas репутация неоспоримаTomas репутация неоспорима
По умолчанию Наталья Штурм - Я не надувная (1994) Lossless



Исполнитель Наталья Штурм
Альбом Я не надувная
picЖанр: Шансон
Год : 1994
Производитель диска: Россия
Аудио кодек: APE
Тип рипа: image+.cue
Битрейт аудио: lossless
Covers в архиве
Размер 285 МБ

Содержание:

01. Надувная баба
02. Без него
03. Кожаная кепка
04. Черная лилия
05. Я возвращаюсь по утру
06. Школьный роман
07. Монетка
08. Вчерашний дорогой
09. Две прохожие
10. В валютном магазине
11. День и ночь


Добавлена опция для восстановления 3%
EAC, FLAC, CUE, LOG, Covers
Сканы в архиве



Ссылка:

Скрытый текст (вы должны зарегистрироваться или войти под своим логином):
У вас нет прав чтобы видеть скрытый текст, содержащейся здесь.



Цитата:
Exact Audio Copy V0.99 prebeta 5 from 4. May 2009

Отчёт EAC об извлечении, выполненном 18. сентября 2009, 19:41

Натлья Штурм / Я-не надувная

Дисковод: TSSTcorpCDDVDW SH-S223F Adapter: 2 ID: 0

Режим чтения : Достоверность
Использование точного потока : Да
Отключение кэша аудио : Да
Использование указателей C2 : Нет

Коррекция смещения при чтении : 6
Способность читать области Lead-in и Lead-out : Нет
Заполнение пропущенных сэмплов тишиной : Да
Удаление блоков с тишиной в начале и конце : Нет
При вычислениях CRC использовались нулевые сэмплы : Да
Интерфейс : Встроенный Win32-интерфейс для Win NT/2000

Выходной формат : Внутренние WAV-операции
Формат сэмплов : 44.100 Гц; 16 бит; стерео


TOC извлечённого CD

Трек | Старт | Длительность | Начальный сектор | Конечный сектор
---------------------------------------------------------------------
1 | 0:00.00 | 3:34.01 | 0 | 16050
2 | 3:34.01 | 3:39.51 | 16051 | 32526
3 | 7:13.52 | 3:11.09 | 32527 | 46860
4 | 10:24.61 | 5:09.38 | 46861 | 70073
5 | 15:34.24 | 5:18.21 | 70074 | 93944
6 | 20:52.45 | 3:41.58 | 93945 | 110577
7 | 24:34.28 | 5:39.21 | 110578 | 136023
8 | 30:13.49 | 3:10.22 | 136024 | 150295
9 | 33:23.71 | 3:06.01 | 150296 | 164246
10 | 36:29.72 | 3:24.27 | 164247 | 179573
11 | 39:54.24 | 3:28.46 | 179574 | 195219


Характеристики диапазона извлечения и сообщения об ошибках

Выбранный диапазон

Имя файла C:\Documents and Settings\Vladimir\Рабочий стол\Наталья Штурм - Я не надувная 1994\Наталья Штурм - Я-не надувная.wav

Пиковый уровень 100.0 %
Качество диапазона 100.0 %
CRC копии FD937118
Копирование... OK

Ошибок не произошло

Конец отчёта

Последний раз редактировалось Варнак; 26.07.2010 в 08:23.
Tomas вне форума   Ответить с цитированием
4 пользователя(ей) сказали cпасибо:
FENIX99966 (11.08.2018), nptn55 (11.08.2011), pvaksv10 (22.10.2009)
Старый 19.09.2009, 16:48   #2
Recruit
Активный
 
Аватар для Recruit
 

Регистрация: 01.02.2009
Адрес: Российская Федерация
Сообщений: 198
Сказал(а) спасибо: 9
Поблагодарили 10 раз(а) в 8 сообщениях
Recruit за этого человека можно гордитсяRecruit за этого человека можно гордитсяRecruit за этого человека можно гордитсяRecruit за этого человека можно гордитсяRecruit за этого человека можно гордитсяRecruit за этого человека можно гордитсяRecruit за этого человека можно гордитсяRecruit за этого человека можно гордитсяRecruit за этого человека можно гордится
По умолчанию

Володя, спасибо!!!
Одна беда, уже почти месяц не могу ничего скачать с рапиды. Может кто знает в чем проблема?
__________________
Все мечты сбываются - рано или поздно, так или иначе.
Recruit вне форума   Ответить с цитированием
Старый 19.09.2009, 18:46   #3
Tomas
вечная память
 
Аватар для Tomas
 

Регистрация: 19.11.2008
Адрес: СССР
Сообщений: 8,569
Сказал(а) спасибо: 1,496
Поблагодарили 6,376 раз(а) в 2,127 сообщениях
Tomas репутация неоспоримаTomas репутация неоспоримаTomas репутация неоспоримаTomas репутация неоспоримаTomas репутация неоспоримаTomas репутация неоспоримаTomas репутация неоспоримаTomas репутация неоспоримаTomas репутация неоспоримаTomas репутация неоспоримаTomas репутация неоспорима
По умолчанию

Скорей всего проблемы связи.
А вообще в таких случаях надо брать прова за жабры.
Tomas вне форума   Ответить с цитированием
Старый 22.06.2011, 04:55   #4
Дмитрий
Администратор
 
Аватар для Дмитрий
 
Турниров выиграно: 1

Регистрация: 12.12.2008
Адрес: Москва прошлого тысячелетия.
Сообщений: 185,459
Сказал(а) спасибо: 36,450
Поблагодарили 197,923 раз(а) в 72,847 сообщениях
Дмитрий репутация неоспоримаДмитрий репутация неоспоримаДмитрий репутация неоспоримаДмитрий репутация неоспоримаДмитрий репутация неоспоримаДмитрий репутация неоспоримаДмитрий репутация неоспоримаДмитрий репутация неоспоримаДмитрий репутация неоспоримаДмитрий репутация неоспоримаДмитрий репутация неоспорима
По умолчанию

Ссылки обновлены
Команда сайта желает Вам приятного прослушивания!
Дмитрий вне форума   Ответить с цитированием
3 пользователя(ей) сказали cпасибо:
Алекс56 (24.07.2015), Korvet (22.06.2011)
Старый 18.05.2012, 16:57   #5
Дмитрий
Администратор
 
Аватар для Дмитрий
 
Турниров выиграно: 1

Регистрация: 12.12.2008
Адрес: Москва прошлого тысячелетия.
Сообщений: 185,459
Сказал(а) спасибо: 36,450
Поблагодарили 197,923 раз(а) в 72,847 сообщениях
Дмитрий репутация неоспоримаДмитрий репутация неоспоримаДмитрий репутация неоспоримаДмитрий репутация неоспоримаДмитрий репутация неоспоримаДмитрий репутация неоспоримаДмитрий репутация неоспоримаДмитрий репутация неоспоримаДмитрий репутация неоспоримаДмитрий репутация неоспоримаДмитрий репутация неоспорима
По умолчанию

ссылки обновлены.
Дмитрий вне форума   Ответить с цитированием
Пользователь сказал cпасибо:
Алекс56 (24.07.2015)
Старый 22.06.2020, 18:40   #6
Дмитрий
Администратор
 
Аватар для Дмитрий
 
Турниров выиграно: 1

Регистрация: 12.12.2008
Адрес: Москва прошлого тысячелетия.
Сообщений: 185,459
Сказал(а) спасибо: 36,450
Поблагодарили 197,923 раз(а) в 72,847 сообщениях
Дмитрий репутация неоспоримаДмитрий репутация неоспоримаДмитрий репутация неоспоримаДмитрий репутация неоспоримаДмитрий репутация неоспоримаДмитрий репутация неоспоримаДмитрий репутация неоспоримаДмитрий репутация неоспоримаДмитрий репутация неоспоримаДмитрий репутация неоспоримаДмитрий репутация неоспорима
По умолчанию

++
Дмитрий вне форума   Ответить с цитированием
Ответ

Закладки

Метки
альбом, бесплатно, covers, cue, eac, flac, наталья, наталья штурм, надувная, песни, log, lossless, скачать, шансон, штурм, я не надувная

Опции темы
Опции просмотра

Ваши права в разделе
Вы не можете создавать новые темы
Вы не можете отвечать в темах
Вы не можете прикреплять вложения
Вы не можете редактировать свои сообщения

BB коды Вкл.
Смайлы Вкл.
[IMG] код Вкл.
HTML код Выкл.

Быстрый переход


Часовой пояс GMT +3, время: 19:32.


Powered by vBulletin® Version 3.8.2
Copyright ©2000 - 2022, Jelsoft Enterprises Ltd. Перевод: zCarot
Rambler's Top100 Республика Татарстан - Каталог сайтов