Все Тут Online
Все Тут Online
Новые сообщения
Все сообщения за последних 24 часа
Все сообщения за последнюю неделю
Расширенный Поиск

   
Меню сайта:
Главная
Форум
Чат
- Online приложения:
- Игры
- Выбор стиля:
- FAQ
- Для начинающих

Вернуться   Все Тут Online > Оцифровки ВИНИЛА пользователей нашего форума > Оцифровки Олега (Ник Pensioneer) (Pioneer PLX-1000 // Korg MR-2000S) ОЦИФРОВКИ ВИНИЛА В ФОРМАТЕ DSD

Старый 19.12.2019, 01:12   #1
Дмитрий
Администратор
 
Аватар для Дмитрий
 
Турниров выиграно: 1

Регистрация: 12.12.2008
Адрес: Москва прошлого тысячелетия.
Сообщений: 227,512
Сказал(а) спасибо: 42,210
Поблагодарили 252,624 раз(а) в 93,434 сообщениях
Дмитрий репутация неоспоримаДмитрий репутация неоспоримаДмитрий репутация неоспоримаДмитрий репутация неоспоримаДмитрий репутация неоспоримаДмитрий репутация неоспоримаДмитрий репутация неоспоримаДмитрий репутация неоспоримаДмитрий репутация неоспоримаДмитрий репутация неоспоримаДмитрий репутация неоспорима
По умолчанию [1/5.64 MHz] Jean Michel Jarre - Equinoxe [DSD 128 (image+.cue) DSF]

Скрытый текст (вы должны зарегистрироваться или войти под своим логином):
У вас нет прав чтобы видеть скрытый текст, содержащейся здесь.



















--------------------------------------------------------------------------------
Анализ: Jean Michel Jarre / Equinoxe
--------------------------------------------------------------------------------

DR Пики RMS Продолжительность трека
--------------------------------------------------------------------------------
DR11 -6.15 дБ -20.96 дБ 2:20 01-Equinoxe Part 1
DR12 -6.36 дБ -22.93 дБ 5:20 02-Equinoxe Part 2
DR12 -5.59 дБ -20.77 дБ 4:48 03-Equinoxe Part 3
DR12 -6.02 дБ -21.29 дБ 6:57 04-Equinoxe Part 4
DR14 -3.38 дБ -20.87 дБ 7:27 05-Equinoxe Part 5
DR12 -5.41 дБ -20.42 дБ 6:57 06-Equinoxe Part 6
DR10 -8.46 дБ -23.29 дБ 1:35 07-Equinoxe Part 7
DR12 -7.05 дБ -23.00 дБ 3:34 08-Equinoxe Part 8
--------------------------------------------------------------------------------

Количество треков: 8
Реальные значения DR: DR12

Частота: 5644800 Гц / Частота PCM: 44100 Гц
Каналов: 2
Разрядность: 1
Битрейт: 11290 кбит/с
Кодек: DSD128
================================================== ==============================

Аудио кодек: DSD 128
Формат раздачи: 1/5,64 MHz
Устройство воспроизведения: Pioneer PLX-1000
Головка звукоснимателя: Benz Micro MC Silver
Предварительный усилитель: Vincent PHO-700
АЦП: Korg MR-2000S
Программа-оцифровщик: AudioGate
Обработка: Нет
Дмитрий вне форума   Ответить с цитированием
9 пользователя(ей) сказали cпасибо:
ВасяВасяВася (17.11.2021), Alex.kelt1 (15.06.2022), cthutq_1956 (19.12.2019), ksenomorf808 (24.06.2020), Leff (22.08.2021), Саша777 (19.12.2019), ТОМ (19.12.2019), ta-alex (05.04.2021), uheep (13.06.2022), ViktorSt56 (19.12.2019)
Старый 19.12.2019, 12:26   #2
ТОМ
VIP
 
Аватар для ТОМ
 

Регистрация: 03.11.2016
Адрес: Воронежская область, Богучарский р-н., село Подколодновка
Сообщений: 3,596
Сказал(а) спасибо: 8,449
Поблагодарили 1,930 раз(а) в 1,386 сообщениях
ТОМ репутация неоспоримаТОМ репутация неоспоримаТОМ репутация неоспоримаТОМ репутация неоспоримаТОМ репутация неоспоримаТОМ репутация неоспоримаТОМ репутация неоспоримаТОМ репутация неоспоримаТОМ репутация неоспоримаТОМ репутация неоспоримаТОМ репутация неоспорима
По умолчанию

Женька, Мишка и Жорка - молодцы!
СПАСИБО!
__________________
Я тут послушать зашел...
ТОМ вне форума   Ответить с цитированием
Ответ

Закладки

Опции темы
Опции просмотра

Ваши права в разделе
Вы не можете создавать новые темы
Вы не можете отвечать в темах
Вы не можете прикреплять вложения
Вы не можете редактировать свои сообщения

BB коды Вкл.
Смайлы Вкл.
[IMG] код Вкл.
HTML код Выкл.

Быстрый переход


Часовой пояс GMT +3, время: 22:53.


Powered by vBulletin® Version 3.8.2
Copyright ©2000 - 2024, Jelsoft Enterprises Ltd. Перевод: zCarot
Rambler's Top100 Республика Татарстан - Каталог сайтов