Все Тут Online
Все Тут Online
Новые сообщения
Все сообщения за последних 24 часа
Все сообщения за последнюю неделю
Расширенный Поиск

   
Меню сайта:
Главная
Форум
Чат
- Online приложения:
- Игры
- Выбор стиля:
- FAQ
- Для начинающих

Вернуться   Все Тут Online > Оцифровки ВИНИЛА пользователей нашего форума > Оцифровки Олега (Ник Pensioneer) (Pioneer PLX-1000 // Korg MR-2000S) ОЦИФРОВКИ ВИНИЛА В ФОРМАТЕ DSD

Старый 19.12.2019, 01:11   #1
Дмитрий
Администратор
 
Аватар для Дмитрий
 
Турниров выиграно: 1

Регистрация: 12.12.2008
Адрес: Москва прошлого тысячелетия.
Сообщений: 227,491
Сказал(а) спасибо: 42,207
Поблагодарили 252,611 раз(а) в 93,425 сообщениях
Дмитрий репутация неоспоримаДмитрий репутация неоспоримаДмитрий репутация неоспоримаДмитрий репутация неоспоримаДмитрий репутация неоспоримаДмитрий репутация неоспоримаДмитрий репутация неоспоримаДмитрий репутация неоспоримаДмитрий репутация неоспоримаДмитрий репутация неоспоримаДмитрий репутация неоспорима
По умолчанию [1/5.64 MHz] Jane Michel Jarre - Oxygene [DSD 128 (image+.cue) DSF]

Скрытый текст (вы должны зарегистрироваться или войти под своим логином):
У вас нет прав чтобы видеть скрытый текст, содержащейся здесь.










--------------------------------------------------------------------------------
Анализ: Jean Michel Jarre / Oxygene
--------------------------------------------------------------------------------

DR Пики RMS Продолжительность трека
--------------------------------------------------------------------------------
DR11 -6.53 дБ -22.28 дБ 7:40 01-Oxygene (Part 1)
DR11 -3.87 дБ -18.94 дБ 8:05 02-Oxygene (Part 2)
DR10 -6.02 дБ -20.21 дБ 2:56 03-Oxygene (Part 3)
DR11 -3.84 дБ -18.24 дБ 4:00 04-Oxygene (Part 4)
DR13 -5.13 дБ -23.26 дБ 10:04 05-Oxygene (Part 5)
DR12 -5.58 дБ -22.79 дБ 6:48 06-Oxygene (Part 6)
--------------------------------------------------------------------------------

Количество треков: 6
Реальные значения DR: DR11

Частота: 5644800 Гц / Частота PCM: 44100 Гц
Каналов: 2
Разрядность: 1
Битрейт: 11290 кбит/с
Кодек: DSD128
================================================== ==============================

Аудио кодек: DSD 128
Формат раздачи: 1/5,64 MHz
Устройство воспроизведения: Pioneer PLX-1000
Головка звукоснимателя: Benz Micro MC Silver
Предварительный усилитель: Vincent PHO-700
АЦП: Korg MR-2000S
Программа-оцифровщик: AudioGate
Обработка: Нет
Дмитрий вне форума   Ответить с цитированием
8 пользователя(ей) сказали cпасибо:
Alex.kelt1 (15.06.2022), cthutq_1956 (19.12.2019), ksenomorf808 (24.06.2020), muzigor (05.04.2023), Саша777 (19.12.2019), ТОМ (19.12.2019), uheep (13.06.2022), ViktorSt56 (19.12.2019)
Старый 19.12.2019, 12:53   #2
cthutq_1956
VIP
 
Аватар для cthutq_1956
 

Регистрация: 17.11.2016
Адрес: Челябинск
Сообщений: 5,925
Сказал(а) спасибо: 12,760
Поблагодарили 3,629 раз(а) в 2,766 сообщениях
cthutq_1956 репутация неоспоримаcthutq_1956 репутация неоспоримаcthutq_1956 репутация неоспоримаcthutq_1956 репутация неоспоримаcthutq_1956 репутация неоспоримаcthutq_1956 репутация неоспоримаcthutq_1956 репутация неоспоримаcthutq_1956 репутация неоспоримаcthutq_1956 репутация неоспоримаcthutq_1956 репутация неоспоримаcthutq_1956 репутация неоспорима
По умолчанию

Звучит классно ,спасибо
cthutq_1956 вне форума   Ответить с цитированием
Пользователь сказал cпасибо:
ezhipatch (04.04.2021)
Ответ

Закладки

Опции темы
Опции просмотра

Ваши права в разделе
Вы не можете создавать новые темы
Вы не можете отвечать в темах
Вы не можете прикреплять вложения
Вы не можете редактировать свои сообщения

BB коды Вкл.
Смайлы Вкл.
[IMG] код Вкл.
HTML код Выкл.

Быстрый переход


Часовой пояс GMT +3, время: 20:40.


Powered by vBulletin® Version 3.8.2
Copyright ©2000 - 2024, Jelsoft Enterprises Ltd. Перевод: zCarot
Rambler's Top100 Республика Татарстан - Каталог сайтов