Все Тут Online
Все Тут Online
Новые сообщения
Все сообщения за последних 24 часа
Все сообщения за последнюю неделю
Расширенный Поиск

   
Меню сайта:
Главная
Форум
Чат
- Online приложения:
- Игры
- Выбор стиля:
- FAQ
- Для начинающих

Вернуться   Все Тут Online > Оцифровки ВИНИЛА пользователей нашего форума > Оцифровки Олега (Ник Pensioneer) (Pioneer PLX-1000 // Korg MR-2000S) ОЦИФРОВКИ ВИНИЛА В ФОРМАТЕ DSD

Старый 18.12.2019, 06:52   #1
Дмитрий
Администратор
 
Аватар для Дмитрий
 
Турниров выиграно: 1

Регистрация: 12.12.2008
Адрес: Москва прошлого тысячелетия.
Сообщений: 227,498
Сказал(а) спасибо: 42,208
Поблагодарили 252,611 раз(а) в 93,425 сообщениях
Дмитрий репутация неоспоримаДмитрий репутация неоспоримаДмитрий репутация неоспоримаДмитрий репутация неоспоримаДмитрий репутация неоспоримаДмитрий репутация неоспоримаДмитрий репутация неоспоримаДмитрий репутация неоспоримаДмитрий репутация неоспоримаДмитрий репутация неоспоримаДмитрий репутация неоспорима
По умолчанию [1/5.64 MHz] Jane-Michel Jarre - Equinoxe Infiniti [DSD 128 (image+.cue) DSF]

Скрытый текст (вы должны зарегистрироваться или войти под своим логином):
У вас нет прав чтобы видеть скрытый текст, содержащейся здесь.


















--------------------------------------------------------------------------------
Анализ: Jane-Michel Jarre / Equinoxe Infiniti
--------------------------------------------------------------------------------

DR Пики RMS Продолжительность трека
--------------------------------------------------------------------------------
DR12 -7.76 дБ -22.33 дБ 3:00 01-The Watchers
DR12 -7.25 дБ -21.62 дБ 3:53 02-Flying Totems
DR12 -6.68 дБ -20.83 дБ 5:40 03-Robots Don't Cry
DR11 -7.94 дБ -22.18 дБ 4:01 04-All That You Leave Behind
DR11 -8.02 дБ -23.71 дБ 1:48 05-If The Wind Could Speak
DR12 -7.24 дБ -21.26 дБ 4:14 06-Infiniti
DR11 -8.51 дБ -21.81 дБ 2:10 07-Machines Are Learning
DR12 -7.74 дБ -21.98 дБ 4:15 08-The Opening
DR12 -8.56 дБ -22.99 дБ 3:37 09-Don't Look Back
DR12 -8.97 дБ -24.96 дБ 7:34 10-Equinoxe Infiniti
--------------------------------------------------------------------------------

Количество треков: 10
Реальные значения DR: DR12

Частота: 5644800 Гц / Частота PCM: 44100 Гц
Каналов: 2
Разрядность: 1
Битрейт: 11290 кбит/с
Кодек: DSD128
================================================== ==============================

Аудио кодек: DSD 128
Формат раздачи: 1/5,64 MHz
Устройство воспроизведения: Pioneer PLX-1000
Головка звукоснимателя: Benz Micro MC Silver
Предварительный усилитель: Vincent PHO-700
АЦП: Korg MR-2000S
Программа-оцифровщик: AudioGate
Обработка: Нет
Дмитрий вне форума   Ответить с цитированием
8 пользователя(ей) сказали cпасибо:
ВасяВасяВася (17.11.2021), Alex.kelt1 (15.06.2022), cthutq_1956 (18.12.2019), ksenomorf808 (24.06.2020), Саша777 (19.12.2019), ТОМ (18.12.2019), ta-alex (05.04.2021), ViktorSt56 (18.12.2019)
Ответ

Закладки

Опции темы
Опции просмотра

Ваши права в разделе
Вы не можете создавать новые темы
Вы не можете отвечать в темах
Вы не можете прикреплять вложения
Вы не можете редактировать свои сообщения

BB коды Вкл.
Смайлы Вкл.
[IMG] код Вкл.
HTML код Выкл.

Быстрый переход


Часовой пояс GMT +3, время: 21:00.


Powered by vBulletin® Version 3.8.2
Copyright ©2000 - 2024, Jelsoft Enterprises Ltd. Перевод: zCarot
Rambler's Top100 Республика Татарстан - Каталог сайтов