Все Тут Online
Все Тут Online
Новые сообщения
Все сообщения за последних 24 часа
Все сообщения за последнюю неделю
Расширенный Поиск

   
Меню сайта:
Главная
Форум
Чат
- Online приложения:
- Игры
- Выбор стиля:
- FAQ
- Для начинающих

Вернуться   Все Тут Online > Оцифровки ВИНИЛА пользователей нашего форума > Оцифровки Олега (Ник Pensioneer) (Pioneer PLX-1000 // Korg MR-2000S) ОЦИФРОВКИ ВИНИЛА В ФОРМАТЕ DSD

Старый 25.01.2018, 14:10   #1
Дмитрий
Администратор
 
Аватар для Дмитрий
 
Турниров выиграно: 1

Регистрация: 12.12.2008
Адрес: Москва прошлого тысячелетия.
Сообщений: 227,512
Сказал(а) спасибо: 42,210
Поблагодарили 252,624 раз(а) в 93,434 сообщениях
Дмитрий репутация неоспоримаДмитрий репутация неоспоримаДмитрий репутация неоспоримаДмитрий репутация неоспоримаДмитрий репутация неоспоримаДмитрий репутация неоспоримаДмитрий репутация неоспоримаДмитрий репутация неоспоримаДмитрий репутация неоспоримаДмитрий репутация неоспоримаДмитрий репутация неоспорима
По умолчанию [1/5.64 MHz] Демис Руссос (Demis Roussos) ‎– Большой Успех 2 (1982) {Мелодия ‎– 33 С 60 —12049-50} [DSD 128 (image+.cue) DSF] + WAVE

[1/5.64 MHz] Демис Руссос (Demis Roussos) ‎– Большой Успех 2 (1982) {Мелодия ‎– 33 С 60 —12049-50} [DSD 128 (image+.cue) DSF]



Аудио кодек: DSD 128
Формат раздачи: 1/5,64 MHz
Устройство воспроизведения: Pioneer PLX-1000
Головка звукоснимателя: Benz Micro MC Silver
Предварительный усилитель: Vincent PHO-700
АЦП: Korg MR-2000S
Программа-оцифровщик: AudioGate
Обработка: Нет

Оцифровщик: Олег (ник Pensioneer)

Tracklist

01 ДЕМИС РУССОС - Будем танцевать
02 ДЕМИС РУССОС - Нет выхода
03 ДЕМИС РУССОС - Скажи, что любишь меня
04 ДЕМИС РУССОС - Пусть это буду я
05 ДЕМИС РУССОС - Звёздный художник
06 ДЕМИС РУССОС - Когда я малыш
07 ДЕМИС РУССОС - Друг мой ветер
08 ДЕМИС РУССОС - Повелитель мух
09 ДЕМИС РУССОС - Ребекка
10 ДЕМИС РУССОС - От сувенира к сувениру




Pressed By – Рижский Завод Грампластинок
Printed By – Типография РЗГ «Мелодия»







Ссылка DSD 128:

Скрытый текст (вы должны зарегистрироваться или войти под своим логином):
У вас нет прав чтобы видеть скрытый текст, содержащейся здесь.


Ссылка WAVE 32 float/176,4 kHz:

Скрытый текст (вы должны зарегистрироваться или войти под своим логином):
У вас нет прав чтобы видеть скрытый текст, содержащейся здесь.


Скрытый текст (вы должны зарегистрироваться или войти под своим логином):
У вас нет прав чтобы видеть скрытый текст, содержащейся здесь.

Дмитрий вне форума   Ответить с цитированием
18 пользователя(ей) сказали cпасибо:
Евгений85 (05.09.2022), Alex.kelt1 (15.06.2022), Григорий56 (11.12.2019), cthutq_1956 (25.01.2018), fip52 (26.01.2018), LordWorld (24.09.2022), mihanik08 (16.07.2022), ТОМ (25.01.2018), Фёдорр (30.01.2019), ser64 (05.02.2022), serz 18 (13.02.2022), Slad654 (16.04.2019), turn (05.06.2020), user369553 (23.10.2022), vel383 (16.02.2018), ViktorSt56 (20.09.2019), румж (25.01.2018)
Старый 25.01.2018, 14:10   #2
Дмитрий
Администратор
 
Аватар для Дмитрий
 
Турниров выиграно: 1

Регистрация: 12.12.2008
Адрес: Москва прошлого тысячелетия.
Сообщений: 227,512
Сказал(а) спасибо: 42,210
Поблагодарили 252,624 раз(а) в 93,434 сообщениях
Дмитрий репутация неоспоримаДмитрий репутация неоспоримаДмитрий репутация неоспоримаДмитрий репутация неоспоримаДмитрий репутация неоспоримаДмитрий репутация неоспоримаДмитрий репутация неоспоримаДмитрий репутация неоспоримаДмитрий репутация неоспоримаДмитрий репутация неоспоримаДмитрий репутация неоспорима
По умолчанию

Код:
foobar2000 1.3.13 / Замер динамического диапазона (DR) 1.1.1
Дата отчёта:		2018-01-24 16:38:10

--------------------------------------------------------------------------------
Анализ:   ДЕМИС РУССОС / 2
--------------------------------------------------------------------------------

DR         Пики         RMS           Продолжительность трека
--------------------------------------------------------------------------------
DR13      -6.49 дБ   -21.45 дБ      3:31 01-Будем танцевать
DR11      -6.64 дБ   -20.94 дБ      3:23 02-Нет выхода
DR15      -7.93 дБ   -24.95 дБ      2:54 03-Скажи, что любишь меня
DR12      -4.64 дБ   -21.74 дБ      3:33 04-Пусть это буду я
DR11      -6.19 дБ   -21.73 дБ      2:30 05-Звёздный художник
DR13      -8.19 дБ   -23.12 дБ      3:20 06-Когда я малыш
DR13      -7.09 дБ   -22.44 дБ      3:56 07-Друг мой ветер
DR14      -6.31 дБ   -22.67 дБ      4:21 08-Повелитель мух
DR10      -7.37 дБ   -19.95 дБ      3:28 09-Ребекка
DR13      -6.72 дБ   -23.78 дБ      2:38 10-От сувенира к сувениру
--------------------------------------------------------------------------------

Количество треков:	10
Реальные значения DR:	DR13

Частота:			5644800 Гц / Частота PCM:	44100 Гц
Каналов:			2
Разрядность: 		1
Битрейт:			11290 кбит/с
Кодек:			DSD128
================================================================================
__________________
О нас думают плохо лишь те, кто хуже нас. А те, кто лучше нас, им просто не до нас.
--Омар Хайям

Обновления по запросу — на Я.Ди. «Мэйл-облако» для тех, кто помогает нашему интернет-проекту, и для тех, кто хотел бы это делать, но пока не знает, как.

Помогая форуму ВТО, вы прежде всего помогаете себе! А не делаете что-то абстрактное для «других», совершенно незнакомых и безразличных вам людей.
Дмитрий вне форума   Ответить с цитированием
Старый 25.01.2018, 14:28   #3
Дмитрий
Администратор
 
Аватар для Дмитрий
 
Турниров выиграно: 1

Регистрация: 12.12.2008
Адрес: Москва прошлого тысячелетия.
Сообщений: 227,512
Сказал(а) спасибо: 42,210
Поблагодарили 252,624 раз(а) в 93,434 сообщениях
Дмитрий репутация неоспоримаДмитрий репутация неоспоримаДмитрий репутация неоспоримаДмитрий репутация неоспоримаДмитрий репутация неоспоримаДмитрий репутация неоспоримаДмитрий репутация неоспоримаДмитрий репутация неоспоримаДмитрий репутация неоспоримаДмитрий репутация неоспоримаДмитрий репутация неоспорима
По умолчанию

Мелодия ‎– 33 С 60—12049-50
Рижский Завод Грампластинок
1982 год
__________________
О нас думают плохо лишь те, кто хуже нас. А те, кто лучше нас, им просто не до нас.
--Омар Хайям

Обновления по запросу — на Я.Ди. «Мэйл-облако» для тех, кто помогает нашему интернет-проекту, и для тех, кто хотел бы это делать, но пока не знает, как.

Помогая форуму ВТО, вы прежде всего помогаете себе! А не делаете что-то абстрактное для «других», совершенно незнакомых и безразличных вам людей.
Дмитрий вне форума   Ответить с цитированием
Старый 09.12.2018, 19:15   #4
novorosisk
Активный
 

Регистрация: 17.02.2012
Адрес: Новороссийск
Сообщений: 5
Сказал(а) спасибо: 0
Поблагодарили 1 раз в 1 сообщении
novorosisk на пути к лучшему
По умолчанию

Спасибо.
novorosisk вне форума   Ответить с цитированием
Старый 15.03.2019, 04:10   #5
wonder1111
Активный
 

Регистрация: 10.03.2019
Сообщений: 60
Сказал(а) спасибо: 1
Поблагодарили 7 раз(а) в 6 сообщениях
wonder1111 на пути к лучшему
По умолчанию

Spasibo ogromnoe!!!!!!!!!!!
wonder1111 вне форума   Ответить с цитированием
Старый 11.12.2019, 05:25   #6
Григорий56
Активный
 

Регистрация: 10.10.2018
Сообщений: 3
Сказал(а) спасибо: 110
Поблагодарили 1 раз в 1 сообщении
Григорий56 на пути к лучшему
По умолчанию

Спасибо Вам!
Григорий56 вне форума   Ответить с цитированием
Пользователь сказал cпасибо:
Дмитрий (11.12.2019)
Старый 11.12.2019, 08:18   #7
sr2014
Активный
 

Регистрация: 15.06.2014
Сообщений: 27
Сказал(а) спасибо: 5
Поблагодарили 6 раз(а) в 6 сообщениях
sr2014 на пути к лучшему
По умолчанию

Спасибо!
sr2014 вне форума   Ответить с цитированием
Ответ

Закладки

Опции темы
Опции просмотра

Ваши права в разделе
Вы не можете создавать новые темы
Вы не можете отвечать в темах
Вы не можете прикреплять вложения
Вы не можете редактировать свои сообщения

BB коды Вкл.
Смайлы Вкл.
[IMG] код Вкл.
HTML код Выкл.

Быстрый переход


Часовой пояс GMT +3, время: 22:52.


Powered by vBulletin® Version 3.8.2
Copyright ©2000 - 2024, Jelsoft Enterprises Ltd. Перевод: zCarot
Rambler's Top100 Республика Татарстан - Каталог сайтов