Все Тут Online
Все Тут Online
Новые сообщения
Все сообщения за последних 24 часа
Все сообщения за последнюю неделю
Расширенный Поиск

   
Меню сайта:
Главная
Форум
Чат
- Online приложения:
- Игры
- Выбор стиля:
- FAQ
- Для начинающих

Вернуться   Все Тут Online > CD (Компакт диски) Lossless и ПОТОКОВОЕ АУДИО (включая HI-RES) - МУЗЫКА БЕЗ ПОТЕРИ КАЧЕСТВА > ПОП МУЗЫКА, Eurodance, Disco (Lossless) > Отечественная Поп музыка (lossless)

Старый 14.01.2010, 08:27   #1
Tomas
вечная память
 
Аватар для Tomas
 

Регистрация: 19.11.2008
Адрес: СССР
Сообщений: 8,568
Сказал(а) спасибо: 1,496
Поблагодарили 6,429 раз(а) в 2,130 сообщениях
Tomas репутация неоспоримаTomas репутация неоспоримаTomas репутация неоспоримаTomas репутация неоспоримаTomas репутация неоспоримаTomas репутация неоспоримаTomas репутация неоспоримаTomas репутация неоспоримаTomas репутация неоспоримаTomas репутация неоспоримаTomas репутация неоспорима
По умолчанию Вячеслав Добрынин - Новые песни о вечном 1996 (Lossless)



Исполнитель Вячеслав Добрынин
Альбом Новые песни о вечном 1996
Жанр Поп
Содержание
01.Я боюсь твоей любви...
02.Солнцу отгорело
03.Извини
04.Всё было так давно
05.Ты меня пожалей
06.Пропадаю
07.Твои духи
08.Наивная ошибка
09.Когла-нибудь
10.Вспомни
11.Карточный домик
12.А ты ждала
13.Раз, два, три
14.Не забывайте друзей

Добавлена опция для восстановления 3%
EAC, FLAC, CUE, LOG, Covers
CD+front box в архиве




Ссылка и пароль:

Скрытый текст (вы должны войти под своим логином или зарегистрироваться и иметь 1 сообщение(ий)):
У вас нет прав чтобы видеть скрытый текст, содержащейся здесь.


Цитата:
Exact Audio Copy V0.99 prebeta 5 from 4. May 2009

Отчёт EAC об извлечении, выполненном 13. января 2010, 19:43

Вячеслав Добрынин / Новые песни о вечном

Дисковод: TSSTcorpCDDVDW SH-S223F Adapter: 2 ID: 0

Режим чтения : Достоверность
Использование точного потока : Да
Отключение кэша аудио : Да
Использование указателей C2 : Нет

Коррекция смещения при чтении : 6
Способность читать области Lead-in и Lead-out : Нет
Заполнение пропущенных сэмплов тишиной : Да
Удаление блоков с тишиной в начале и конце : Нет
При вычислениях CRC использовались нулевые сэмплы : Да
Интерфейс : Встроенный Win32-интерфейс для Win NT/2000

Выходной формат : Внутренние WAV-операции
Формат сэмплов : 44.100 Гц; 16 бит; стерео


TOC извлечённого CD

Трек | Старт | Длительность | Начальный сектор | Конечный сектор
---------------------------------------------------------------------
1 | 0:00.00 | 4:57.02 | 0 | 22276
2 | 4:57.02 | 4:47.34 | 22277 | 43835
3 | 9:44.36 | 3:43.56 | 43836 | 60616
4 | 13:28.17 | 4:02.41 | 60617 | 78807
5 | 17:30.58 | 4:05.15 | 78808 | 97197
6 | 21:35.73 | 4:19.14 | 97198 | 116636
7 | 25:55.12 | 4:35.61 | 116637 | 137322
8 | 30:30.73 | 4:03.67 | 137323 | 155614
9 | 34:34.65 | 4:23.40 | 155615 | 175379
10 | 38:58.30 | 4:32.56 | 175380 | 195835
11 | 43:31.11 | 4:44.18 | 195836 | 217153
12 | 48:15.29 | 4:30.04 | 217154 | 237407
13 | 52:45.33 | 4:04.68 | 237408 | 255775
14 | 56:50.26 | 4:47.67 | 255776 | 277367


Характеристики диапазона извлечения и сообщения об ошибках

Выбранный диапазон

Имя файла C:\Documents and Settings\Vladimir\Рабочий стол\Вячеслав Добрынин - Новые песни о вечном 1996\Вячеслав Добрынин - Новые песни о вечном.wav

Пиковый уровень 96.4 %
Качество диапазона 100.0 %
CRC копии 369001F5
Копирование... OK

Ошибок не произошло

Конец отчёта
Tomas вне форума   Ответить с цитированием
11 пользователя(ей) сказали cпасибо:
Дмитрий (14.01.2010), bobsan1959 (18.01.2010), djpek (09.05.2015), Efim364 (14.01.2010), gennadij (10.05.2010), Goh78 (04.11.2015), ochkolup66 (11.11.2016), rekrut_666 (19.04.2016), skarlett1956 (17.01.2010), solis (28.10.2010), Winnie (27.08.2010)
Старый 17.01.2010, 16:59   #2
skarlett1956
Активный
 
Аватар для skarlett1956
 

Регистрация: 01.12.2008
Адрес: Хайфа, Крает
Сообщений: 261
Сказал(а) спасибо: 118
Поблагодарили 74 раз(а) в 36 сообщениях
skarlett1956 за этого человека можно гордитсяskarlett1956 за этого человека можно гордитсяskarlett1956 за этого человека можно гордитсяskarlett1956 за этого человека можно гордитсяskarlett1956 за этого человека можно гордитсяskarlett1956 за этого человека можно гордитсяskarlett1956 за этого человека можно гордитсяskarlett1956 за этого человека можно гордитсяskarlett1956 за этого человека можно гордится
Отправить сообщение для skarlett1956 с помощью ICQ
По умолчанию

Tomas, спасибо
skarlett1956 вне форума   Ответить с цитированием
Старый 27.08.2010, 18:06   #3
Winnie
Активный
 

Регистрация: 27.08.2010
Сообщений: 1
Сказал(а) спасибо: 1
Поблагодарили 0 раз(а) в 0 сообщениях
Winnie на пути к лучшему
По умолчанию

Отличный диск!
Winnie вне форума   Ответить с цитированием
Старый 27.10.2010, 10:07   #4
bsvretro
Активный
 

Регистрация: 27.04.2010
Сообщений: 5
Сказал(а) спасибо: 6
Поблагодарили 0 раз(а) в 0 сообщениях
bsvretro на пути к лучшему
По умолчанию

Огромное спасибо
bsvretro вне форума   Ответить с цитированием
Старый 04.08.2014, 09:02   #5
denver 1
Активный
 

Регистрация: 04.08.2014
Сообщений: 1
Сказал(а) спасибо: 0
Поблагодарили 0 раз(а) в 0 сообщениях
denver 1 на пути к лучшему
По умолчанию

спасибо
denver 1 вне форума   Ответить с цитированием
Старый 23.04.2015, 14:13   #6
rekrut_666
Активный
 

Регистрация: 23.04.2015
Сообщений: 2
Сказал(а) спасибо: 1
Поблагодарили 0 раз(а) в 0 сообщениях
rekrut_666 на пути к лучшему
По умолчанию

спасибо огромное!!!
rekrut_666 вне форума   Ответить с цитированием
Старый 04.11.2015, 06:48   #7
Goh78
Активный
 
Аватар для Goh78
 

Регистрация: 18.09.2014
Адрес: Белая Калитва
Сообщений: 656
Сказал(а) спасибо: 2,547
Поблагодарили 450 раз(а) в 291 сообщениях
Goh78 репутация неоспоримаGoh78 репутация неоспоримаGoh78 репутация неоспоримаGoh78 репутация неоспоримаGoh78 репутация неоспоримаGoh78 репутация неоспоримаGoh78 репутация неоспоримаGoh78 репутация неоспоримаGoh78 репутация неоспоримаGoh78 репутация неоспоримаGoh78 репутация неоспорима
Отправить сообщение для Goh78 с помощью Skype™
По умолчанию

Благодарю!!!!
Goh78 вне форума   Ответить с цитированием
Старый 24.02.2019, 18:17   #8
kis40
Активный
 

Регистрация: 03.06.2017
Сообщений: 7
Сказал(а) спасибо: 65
Поблагодарили 1 раз в 1 сообщении
kis40 на пути к лучшему
По умолчанию

Ссылка не работает, к сожалению...
kis40 вне форума   Ответить с цитированием
Старый 24.02.2019, 18:40   #9
Алёшка
Активный
 

Регистрация: 21.02.2019
Сообщений: 32
Сказал(а) спасибо: 0
Поблагодарили 0 раз(а) в 0 сообщениях
Алёшка на пути к лучшему
По умолчанию

Спасибо
Алёшка вне форума   Ответить с цитированием
Старый 06.10.2021, 21:05   #10
Андрей Андрееви
Активный
 

Регистрация: 03.03.2019
Сообщений: 37
Сказал(а) спасибо: 2
Поблагодарили 4 раз(а) в 4 сообщениях
Андрей Андрееви на пути к лучшему
По умолчанию

Добрынин Вячеслав любимый писатель, композитор и исполнитель песен.
Андрей Андрееви вне форума   Ответить с цитированием
Ответ

Закладки

Метки
альбом, бесплатно, вячеслав добрынин, cue, flac, новые песни о вечном, поп, lossless, megaupload, скачать

Опции темы
Опции просмотра

Ваши права в разделе
Вы не можете создавать новые темы
Вы не можете отвечать в темах
Вы не можете прикреплять вложения
Вы не можете редактировать свои сообщения

BB коды Вкл.
Смайлы Вкл.
[IMG] код Вкл.
HTML код Выкл.

Быстрый переход


Часовой пояс GMT +3, время: 20:54.


Powered by vBulletin® Version 3.8.2
Copyright ©2000 - 2022, Jelsoft Enterprises Ltd. Перевод: zCarot
Rambler's Top100 Республика Татарстан - Каталог сайтов