Все Тут Online
Все Тут Online
Новые сообщения
Все сообщения за последних 24 часа
Все сообщения за последнюю неделю
Расширенный Поиск

   
Меню сайта:
Главная
Форум
Чат
- Online приложения:
- Игры
- Выбор стиля:
- FAQ
- Для начинающих

Вернуться   Все Тут Online > ОЦИФРОВКИ ВИНИЛА (Lossless) > ПОП МУЗЫКА, Eurodance, Disco (Lossless), > Зарубежная Поп музыка (lossless)

Старый 26.03.2017, 19:47   #1
Don_G
Активный
 
Аватар для Don_G
 

Регистрация: 27.05.2010
Сообщений: 104
Сказал(а) спасибо: 298
Поблагодарили 458 раз(а) в 69 сообщениях
Don_G репутация неоспоримаDon_G репутация неоспоримаDon_G репутация неоспоримаDon_G репутация неоспоримаDon_G репутация неоспоримаDon_G репутация неоспоримаDon_G репутация неоспоримаDon_G репутация неоспоримаDon_G репутация неоспоримаDon_G репутация неоспоримаDon_G репутация неоспорима
По умолчанию [MB] [24/96] Руся - Кияночка - 1994, FLAC (image+.cue)

Руся - Кияночка


Год выпуска: 1994
Лейбл: NAC
Страна-производитель: Украина
Аудио кодек: FLAC
Тип рипа: image+.cue
Формат записи: 32*/96
Формат раздачи: 24/96
Продолжительность: 00:45:07

Треклист:

1. Кияночка
2. Росами
3. Тік-Так
4. Нічний експрес
5. Перлинки
6. Шкода
7. День народження
8. Не край
9. Будь зі мною
10.Просто Марія




Источник оцифровки: автором раздачи
Устройство воспроизведения: Олимп 004
Предварительный усилитель: Линейный выход
АЦП: Creative Audigy SE (SB0570) Sound Card
Программа-оцифровщик: Adobe Audition 3.0
Обработка: Минимальная

К сожалению на "КУИ" нет времени. Если кто сделает - буду очень благодарен.


Скачать FLAC+CUE (24/96):

Скрытый текст (вы должны зарегистрироваться или войти под своим логином):
У вас нет прав чтобы видеть скрытый текст, содержащейся здесь.

Последний раз редактировалось Don_G; 26.03.2017 в 19:52.
Don_G вне форума   Ответить с цитированием
4 пользователя(ей) сказали cпасибо:
Алексей 69 (06.04.2017), Дмитрий (26.03.2017), Eugen (27.03.2017), oleg1997 (18.04.2024)
Старый 26.03.2017, 20:17   #2
Дмитрий
Администратор
 
Аватар для Дмитрий
 
Турниров выиграно: 1

Регистрация: 12.12.2008
Адрес: Москва прошлого тысячелетия.
Сообщений: 235,118
Сказал(а) спасибо: 43,562
Поблагодарили 259,184 раз(а) в 96,324 сообщениях
Дмитрий репутация неоспоримаДмитрий репутация неоспоримаДмитрий репутация неоспоримаДмитрий репутация неоспоримаДмитрий репутация неоспоримаДмитрий репутация неоспоримаДмитрий репутация неоспоримаДмитрий репутация неоспоримаДмитрий репутация неоспоримаДмитрий репутация неоспоримаДмитрий репутация неоспорима
По умолчанию

Код:
REM GENRE "Поп"
REM DATE 1994
REM COMMENT "Оцифровка - Don_G"
TITLE "Кияночка"
PERFORMER "Руся"
FILE "Руся '94 - Кияночка.flac" WAVE
  TRACK 01 AUDIO
TITLE "Кияночка"
PERFORMER "Руся"
    INDEX 01 00:00:00
  TRACK 02 AUDIO
TITLE "Росами"
PERFORMER "Руся"
    INDEX 01 04:35:47
  TRACK 03 AUDIO
TITLE "Тік-Так"
PERFORMER "Руся"
    INDEX 01 08:55:43
  TRACK 04 AUDIO
TITLE "Нічний експрес"
PERFORMER "Руся"
    INDEX 01 14:00:38
  TRACK 05 AUDIO
TITLE "Перлинки"
PERFORMER "Руся"
    INDEX 01 18:12:20
  TRACK 06 AUDIO
TITLE "Шкода"
PERFORMER "Руся"
    INDEX 01 22:28:37
  TRACK 07 AUDIO
TITLE "День народження"
PERFORMER "Руся"
    INDEX 01 26:47:45
  TRACK 08 AUDIO
TITLE "Не край"
PERFORMER "Руся"
    INDEX 01 30:53:13
  TRACK 09 AUDIO
TITLE "Будь зі мною"
PERFORMER "Руся"
    INDEX 01 35:22:47
  TRACK 10 AUDIO
TITLE "Просто Марія"
PERFORMER "Руся"
    INDEX 01 41:09:64
__________________
О нас думают плохо лишь те, кто хуже нас. А те, кто лучше нас, им просто не до нас.
--Омар Хайям

Обновления по запросу — на Я.Ди. «Мэйл-облако» для тех, кто помогает нашему интернет-проекту, и для тех, кто хотел бы это делать, но пока не знает, как.

Помогая форуму ВТО, вы прежде всего помогаете себе! А не делаете что-то абстрактное для «других», совершенно незнакомых и безразличных вам людей.
Дмитрий вне форума   Ответить с цитированием
2 пользователя(ей) сказали cпасибо:
Алексей 69 (06.04.2017), Don_G (26.03.2017)
Старый 06.04.2017, 13:33   #3
Алексей 69
Заблокирован
 

Регистрация: 15.04.2016
Адрес: Россия
Сообщений: 1,643
Сказал(а) спасибо: 4,552
Поблагодарили 590 раз(а) в 440 сообщениях
Алексей 69 репутация неоспоримаАлексей 69 репутация неоспоримаАлексей 69 репутация неоспоримаАлексей 69 репутация неоспоримаАлексей 69 репутация неоспоримаАлексей 69 репутация неоспоримаАлексей 69 репутация неоспоримаАлексей 69 репутация неоспоримаАлексей 69 репутация неоспоримаАлексей 69 репутация неоспоримаАлексей 69 репутация неоспорима
По умолчанию

Don_G спасибо....!!!
Алексей 69 вне форума   Ответить с цитированием
Ответ

Закладки

Опции темы
Опции просмотра

Ваши права в разделе
Вы не можете создавать новые темы
Вы не можете отвечать в темах
Вы не можете прикреплять вложения
Вы не можете редактировать свои сообщения

BB коды Вкл.
Смайлы Вкл.
[IMG] код Вкл.
HTML код Выкл.

Быстрый переход


Часовой пояс GMT +3, время: 06:15.


Powered by vBulletin® Version 3.8.2
Copyright ©2000 - 2024, Jelsoft Enterprises Ltd. Перевод: zCarot
Rambler's Top100 Республика Татарстан - Каталог сайтов