Все Тут Online
Все Тут Online
Новые сообщения
Все сообщения за последних 24 часа
Все сообщения за последнюю неделю
Расширенный Поиск

   
Меню сайта:
Главная
Форум
Чат
- Online приложения:
- Игры
- Выбор стиля:
- FAQ
- Для начинающих

Вернуться   Все Тут Online > Оцифровки ВИНИЛА пользователей нашего форума > Оцифровки Олега (Ник Pensioneer) (Pioneer PLX-1000 // Korg MR-2000S) ОЦИФРОВКИ ВИНИЛА В ФОРМАТЕ DSD

Старый 16.12.2019, 01:29   #1
Дмитрий
Администратор
 
Аватар для Дмитрий
 
Турниров выиграно: 1

Регистрация: 12.12.2008
Адрес: Москва прошлого тысячелетия.
Сообщений: 230,620
Сказал(а) спасибо: 42,792
Поблагодарили 255,706 раз(а) в 94,751 сообщениях
Дмитрий репутация неоспоримаДмитрий репутация неоспоримаДмитрий репутация неоспоримаДмитрий репутация неоспоримаДмитрий репутация неоспоримаДмитрий репутация неоспоримаДмитрий репутация неоспоримаДмитрий репутация неоспоримаДмитрий репутация неоспоримаДмитрий репутация неоспоримаДмитрий репутация неоспорима
По умолчанию [1/5.64 MHz] Deep Purple - Made In England (1971-1972 (2018)) [DSD 128 (image+.cue) DSF]

Скрытый текст (вы должны зарегистрироваться или войти под своим логином):
У вас нет прав чтобы видеть скрытый текст, содержащейся здесь.














--------------------------------------------------------------------------------
Анализ: Deep Purple / Made In England
--------------------------------------------------------------------------------

DR Пики RMS Продолжительность трека
--------------------------------------------------------------------------------
DR10 -6.67 дБ -18.27 дБ 7:05 01-Highway Star
DR10 -3.41 дБ -18.51 дБ 8:18 02-No No No
DR10 -7.10 дБ -19.14 дБ 15:55 03-Child In Time
DR9 -3.43 дБ -18.06 дБ 9:01 04-Strange Kind Of Woman
DR9 -7.40 дБ -19.37 дБ 12:30 05-Lazy
DR9 -7.25 дБ -18.09 дБ 9:46 06-Fireball
--------------------------------------------------------------------------------

Количество треков: 6
Реальные значения DR: DR10

Частота: 5644800 Гц / Частота PCM: 44100 Гц
Каналов: 2
Разрядность: 1
Битрейт: 11290 кбит/с
Кодек: DSD128
================================================== ==============================



Bass – Roger Glover
Drum – Ian Paice
Guitar – Ritchie Blackmore
Organ – Jon Lord
Vocals – Ian Gillan

Аудио кодек: DSD 128
Формат раздачи: 1/5,64 MHz
Устройство воспроизведения: Pioneer PLX-1000
Головка звукоснимателя: Benz Micro MC Silver
Предварительный усилитель: Vincent PHO-700
АЦП: Korg MR-2000S
Программа-оцифровщик: AudioGate
Обработка: Нет
Дмитрий вне форума   Ответить с цитированием
13 пользователя(ей) сказали cпасибо:
ВасяВасяВася (16.01.2022), Александр4937 (17.12.2019), Alex.kelt1 (15.06.2022), Barbudo (20.11.2022), Domi (16.12.2019), ezhipatch (04.04.2021), FLHTYFKBY (17.12.2019), ListenerB (20.10.2021), myboy (13.01.2022), neomal (26.06.2023), SergeL (14.03.2022), uheep (02.07.2020)
Старый 13.01.2022, 12:30   #2
myboy
Активный
 

Регистрация: 19.12.2021
Сообщений: 4
Сказал(а) спасибо: 130
Поблагодарили 2 раз(а) в 2 сообщениях
myboy на пути к лучшему
По умолчанию

Спасибо огромное за раздачу.
myboy вне форума   Ответить с цитированием
Старый 29.09.2022, 16:02   #3
Чураков
Активный
 
Аватар для Чураков
 

Регистрация: 27.07.2016
Сообщений: 79
Сказал(а) спасибо: 386
Поблагодарили 33 раз(а) в 33 сообщениях
Чураков - весьма и весьма положительная личностьЧураков - весьма и весьма положительная личность
По умолчанию

Спасибо. Дмитрий Вы делали советский сборник Радуга в хорошем формате?
Чураков вне форума   Ответить с цитированием
Старый 29.09.2022, 18:03   #4
Дмитрий
Администратор
 
Аватар для Дмитрий
 
Турниров выиграно: 1

Регистрация: 12.12.2008
Адрес: Москва прошлого тысячелетия.
Сообщений: 230,620
Сказал(а) спасибо: 42,792
Поблагодарили 255,706 раз(а) в 94,751 сообщениях
Дмитрий репутация неоспоримаДмитрий репутация неоспоримаДмитрий репутация неоспоримаДмитрий репутация неоспоримаДмитрий репутация неоспоримаДмитрий репутация неоспоримаДмитрий репутация неоспоримаДмитрий репутация неоспоримаДмитрий репутация неоспоримаДмитрий репутация неоспоримаДмитрий репутация неоспорима
По умолчанию

https://www.vsetutonline.com/forum/s...d.php?t=225518
https://www.vsetutonline.com/forum/s...d.php?t=225523
Дмитрий вне форума   Ответить с цитированием
Пользователь сказал cпасибо:
myboy (29.09.2022)
Ответ

Закладки

Опции темы
Опции просмотра
Комбинированный вид Комбинированный вид

Ваши права в разделе
Вы не можете создавать новые темы
Вы не можете отвечать в темах
Вы не можете прикреплять вложения
Вы не можете редактировать свои сообщения

BB коды Вкл.
Смайлы Вкл.
[IMG] код Вкл.
HTML код Выкл.

Быстрый переход


Часовой пояс GMT +3, время: 14:04.


Powered by vBulletin® Version 3.8.2
Copyright ©2000 - 2024, Jelsoft Enterprises Ltd. Перевод: zCarot
Rambler's Top100 Республика Татарстан - Каталог сайтов