Все Тут Online
Все Тут Online
Новые сообщения
Все сообщения за последних 24 часа
Все сообщения за последнюю неделю
Расширенный Поиск

   
Меню сайта:
Главная
Форум
Чат
- Online приложения:
- Игры
- Выбор стиля:
- FAQ
- Для начинающих

Вернуться   Все Тут Online > Оцифровки ВИНИЛА пользователей нашего форума > Оцифровки Борис 63 (Technics SL-1200 MK3D // Victor QL-A7 [Audio-Technica AT440MLa] => Accuphase 200

Старый 01.12.2018, 11:46   #1
Борис 63
VIP
 
Аватар для Борис 63
 

Регистрация: 01.02.2010
Адрес: СССР Москва
Сообщений: 15,282
Сказал(а) спасибо: 9,045
Поблагодарили 54,802 раз(а) в 8,662 сообщениях
Борис 63 репутация неоспоримаБорис 63 репутация неоспоримаБорис 63 репутация неоспоримаБорис 63 репутация неоспоримаБорис 63 репутация неоспоримаБорис 63 репутация неоспоримаБорис 63 репутация неоспоримаБорис 63 репутация неоспоримаБорис 63 репутация неоспоримаБорис 63 репутация неоспоримаБорис 63 репутация неоспорима
По умолчанию (24/96) Max Greger -Die goldene Tanzplatte- 1979 (lossless)









Оцифровка с пластинки из личной коллекции.

Приятного прослушивания.




01 Max Greger - Ring My Bell - Bad Girls
02 Max Greger - Chiquitita - Blue Bayou
03 Max Greger - Copacabana - Casanova
04 Max Greger - One Way Ticket - Sunday Girl
05 Max Greger - Hallelujah - So Bist Du
06 Max Greger - Dschinghis Khan - Moskau
07 Max Greger - El Lute - Lago Maggiore
08 Max Greger - Born To Be Alive - Does Your Mother Know
09 Max Greger - Mama Leone - Bright Eyes
10 Max Greger - Regionsome Girls - Hooray! Hooray! It's A Holi-Holiday
11 Max Greger - Save Me - Hot Stuff
12 Max Greger - Vogel Der Nacht - Das Lied Von Manuel
13 Max Greger - Ein Herz Fur Kinder - Sag Nicht, Es War Einmal
14 Max Greger - In The Navy - Y.M.C.A.

ссылка

Скрытый текст (вы должны зарегистрироваться или войти под своим логином):
У вас нет прав чтобы видеть скрытый текст, содержащейся здесь.
__________________
Ccылка на тему: Как скачивать с Яндекс диска!

Чтобы быстро скачать чужой опубликованный файл, сохраните его на свой Диск. На вашем Диске файл окажется мгновенно, а свои файлы вы всегда можете скачать без ограничений.
Борис 63 вне форума   Ответить с цитированием
24 пользователя(ей) сказали cпасибо:
васил (02.12.2018), Владислав49 (02.12.2018), Алёша 333 (02.12.2018), Дмитрий (20.12.2018), aqwa (01.12.2018), belomor30 (12.01.2019), Chedex (12.04.2020), cloud (01.12.2018), cthutq_1956 (01.12.2018), DeD (01.12.2018), Edius (11.12.2018), искатель (02.12.2018), Fellow (01.12.2018), Igor71 (02.12.2018), oblom123 (02.12.2018), Толик68 (02.12.2018), Pensioneer (08.07.2020), philis (01.12.2020), rubicon (02.12.2018), tem (02.12.2018), tundrorum (07.07.2020), Unker (02.12.2018), volkou (02.12.2018)
Старый 01.12.2018, 12:45   #2
cthutq_1956
VIP
 
Аватар для cthutq_1956
 

Регистрация: 17.11.2016
Адрес: Челябинск
Сообщений: 5,944
Сказал(а) спасибо: 12,810
Поблагодарили 3,658 раз(а) в 2,785 сообщениях
cthutq_1956 репутация неоспоримаcthutq_1956 репутация неоспоримаcthutq_1956 репутация неоспоримаcthutq_1956 репутация неоспоримаcthutq_1956 репутация неоспоримаcthutq_1956 репутация неоспоримаcthutq_1956 репутация неоспоримаcthutq_1956 репутация неоспоримаcthutq_1956 репутация неоспоримаcthutq_1956 репутация неоспоримаcthutq_1956 репутация неоспорима
По умолчанию

Борис 63привет, объёмный,правильный звук и приятная музыка ,спасибо за щедрость и труды Сканы все буковки чётко видно.
cthutq_1956 вне форума   Ответить с цитированием
Старый 01.12.2018, 12:59   #3
Борис 63
VIP
 
Аватар для Борис 63
 

Регистрация: 01.02.2010
Адрес: СССР Москва
Сообщений: 15,282
Сказал(а) спасибо: 9,045
Поблагодарили 54,802 раз(а) в 8,662 сообщениях
Борис 63 репутация неоспоримаБорис 63 репутация неоспоримаБорис 63 репутация неоспоримаБорис 63 репутация неоспоримаБорис 63 репутация неоспоримаБорис 63 репутация неоспоримаБорис 63 репутация неоспоримаБорис 63 репутация неоспоримаБорис 63 репутация неоспоримаБорис 63 репутация неоспоримаБорис 63 репутация неоспорима
По умолчанию

cthutq_1956,

Привет , это фото , у меня такого большого сканера нет ,да и маленький не хочет дружить в 10-кой.

Значит не дрогнула рука.
__________________
Ccылка на тему: Как скачивать с Яндекс диска!

Чтобы быстро скачать чужой опубликованный файл, сохраните его на свой Диск. На вашем Диске файл окажется мгновенно, а свои файлы вы всегда можете скачать без ограничений.
Борис 63 вне форума   Ответить с цитированием
Пользователь сказал cпасибо:
BBKing (01.12.2018)
Старый 02.12.2018, 15:28   #4
rubicon
Активный
 

Регистрация: 11.10.2016
Сообщений: 21
Сказал(а) спасибо: 191
Поблагодарили 21 раз(а) в 15 сообщениях
rubicon скоро придёт к известностиrubicon скоро придёт к известности
По умолчанию

Куй: если кому понадобится


REM GENRE "Easy Listening"
REM DATE 1979
REM LABEL Polydor
REM LABELNUMBER "2371 959"
PERFORMER "Max Greger"
TITLE "Die Goldene Tanzplatte"
FILE "Max Greger -Die goldene Tanzplatte- 1979.flac" WAVE
TRACK 01 AUDIO
TITLE "Ring My Bell - Bad Girls"
PERFORMER "Max Greger"
INDEX 01 00:00:00
TRACK 02 AUDIO
TITLE "Chiquitita - Blue Bayou"
PERFORMER "Max Greger"
INDEX 01 03:33:22
TRACK 03 AUDIO
TITLE "Copacabana - Casanova"
PERFORMER "Max Greger"
INDEX 01 06:50:00
TRACK 04 AUDIO
TITLE "One Way Ticket - Sunday Girl"
PERFORMER "Max Greger"
INDEX 01 09:42:47
TRACK 05 AUDIO
TITLE "Hallelujah - So Bist Du"
PERFORMER "Max Greger"
INDEX 01 13:00:00
TRACK 06 AUDIO
TITLE "Dschinghis Khan - Moskau"
PERFORMER "Max Greger"
INDEX 01 16:13:48
TRACK 07 AUDIO
TITLE "El Lute - Lago Maggiore"
PERFORMER "Max Greger"
INDEX 01 19:20:00
TRACK 08 AUDIO
TITLE "Born To Be Alive - Does Your Mother Know"
PERFORMER "Max Greger"
INDEX 01 22:54:42
TRACK 09 AUDIO
TITLE "Mama Leone - Bright Eyes"
PERFORMER "Max Greger"
INDEX 01 26:05:16
TRACK 10 AUDIO
TITLE "Regionsome Girls - Hooray! Hooray! It's A Holi-Holiday"
PERFORMER "Max Greger"
INDEX 01 29:07:47
TRACK 11 AUDIO
TITLE "Save Me - Hot Stuff"
PERFORMER "Max Greger"
INDEX 01 32:02:12
TRACK 12 AUDIO
TITLE "Vogel Der Nacht - Das Lied Von Manuel"
PERFORMER "Max Greger"
INDEX 01 35:28:40
TRACK 13 AUDIO
TITLE "Ein Herz Fur Kinder - Sag Nicht, Es War Einmal"
PERFORMER "Max Greger"
INDEX 01 38:28:22
TRACK 14 AUDIO
TITLE "In The Navy - Y.M.C.A."
PERFORMER "Max Greger"
INDEX 01 41:53:64
rubicon вне форума   Ответить с цитированием
2 пользователя(ей) сказали cпасибо:
Борис 63 (02.12.2018), aqwa (02.12.2018)
Старый 02.12.2018, 18:55   #5
Алёша 333
Активный
 
Аватар для Алёша 333
 

Регистрация: 01.05.2011
Адрес: Саратовская Губерния
Сообщений: 626
Сказал(а) спасибо: 1,176
Поблагодарили 383 раз(а) в 247 сообщениях
Алёша 333 обеспечил(а) себе прекрасное будущееАлёша 333 обеспечил(а) себе прекрасное будущееАлёша 333 обеспечил(а) себе прекрасное будущееАлёша 333 обеспечил(а) себе прекрасное будущееАлёша 333 обеспечил(а) себе прекрасное будущееАлёша 333 обеспечил(а) себе прекрасное будущееАлёша 333 обеспечил(а) себе прекрасное будущееАлёша 333 обеспечил(а) себе прекрасное будущееАлёша 333 обеспечил(а) себе прекрасное будущееАлёша 333 обеспечил(а) себе прекрасное будущееАлёша 333 обеспечил(а) себе прекрасное будущее
Отправить сообщение для Алёша 333 с помощью ICQ
По умолчанию

Борис, благодарю. Очень приятный качественнвй звук.
Сама пластинка просто отличная по содержанию.
Алёша 333 вне форума   Ответить с цитированием
Пользователь сказал cпасибо:
Борис 63 (02.12.2018)
Ответ

Закладки

Опции темы
Опции просмотра

Ваши права в разделе
Вы не можете создавать новые темы
Вы не можете отвечать в темах
Вы не можете прикреплять вложения
Вы не можете редактировать свои сообщения

BB коды Вкл.
Смайлы Вкл.
[IMG] код Вкл.
HTML код Выкл.

Быстрый переход


Часовой пояс GMT +3, время: 00:01.


Powered by vBulletin® Version 3.8.2
Copyright ©2000 - 2024, Jelsoft Enterprises Ltd. Перевод: zCarot
Rambler's Top100 Республика Татарстан - Каталог сайтов