Все Тут Online
Все Тут Online
Новые сообщения
Все сообщения за последних 24 часа
Все сообщения за последнюю неделю
Расширенный Поиск

   
Меню сайта:
Главная
Форум
Чат
- Online приложения:
- Игры
- Выбор стиля:
- FAQ
- Для начинающих

Вернуться   Все Тут Online > CD (Компакт диски) Lossless и ПОТОКОВОЕ АУДИО - МУЗЫКА БЕЗ ПОТЕРИ КАЧЕСТВА > ПОП МУЗЫКА, Eurodance, Disco (Lossless) > Отечественная Поп музыка (lossless)

Старый 04.10.2022, 16:18   #1
edd1966
VIP
 
Аватар для edd1966
 

Регистрация: 09.02.2014
Адрес: Россия,Северо-западный федеральный округ
Сообщений: 662
Сказал(а) спасибо: 2,156
Поблагодарили 1,168 раз(а) в 342 сообщениях
edd1966 репутация неоспоримаedd1966 репутация неоспоримаedd1966 репутация неоспоримаedd1966 репутация неоспоримаedd1966 репутация неоспоримаedd1966 репутация неоспоримаedd1966 репутация неоспоримаedd1966 репутация неоспоримаedd1966 репутация неоспоримаedd1966 репутация неоспоримаedd1966 репутация неоспорима
По умолчанию Динамик - Концерт в Кирове 1982 (2 x CD Россия)

Динамик – Концерт В Кирове 30 Декабря 1982 Года

Страна: Россия
Формат: 2 x CD, Album
Лейбл: Русское Снабжение – RS 94035
Дата релиза: 1994
Жанр: Rock
Проигрыватель - Pioneer cdj 900
Запись - Tascam HD P2
Цифровой аудио-формат Flac 16/44
В редакции. Разделил только диски
Сканы есть.
Из собственной коллекции

1-1 Кто Не Успел, Тот Опоздал 2:52
1-2 Мама, Я Попал В Беду 6:56
1-3 Мячик 3:42
1-4 По Прежнему Вдвоем (Капюшон) 4:58
1-5 Спортлото 7:00
1-6 Музыканты 8:54
1-7 На Пляже (Плещет Волна) 4:31
2-1 Лед Слезы Льет 5:06
2-2 Ливень 6:15
2-3 Я Возвращался Домой 3:47
2-4 17 Лет 3:01
2-5 Делай Физзарядку 11:13
2-6 Мама Купила Мне Гитару 5:40
2-7 бонус трек Проявленные лица

Bass Guitar, Backing Vocals – Сергей Рыжов
Drums, Backing Vocals – Юрий Китаев
Engineer – Алексей Ревин, Юрий Фомин
Keyboards, Backing Vocals – Александр Кузьмин
Lyrics By – Владимир Кузьмин (треков: 1-1, 1-2, 1-4, 1-6 to 2-14), И. Кохановский* (треков: 1-3, 1-5)
Producer – В. Кузьмин*
Vocals, Guitar, Piano, Flute, Violin, Saxophone, Harmonica, Music By – Владимир Кузьмин

Не стал делить на треки, что бы сохранить атмосферу концерта.
Скрытый текст (вы должны зарегистрироваться или войти под своим логином):
У вас нет прав чтобы видеть скрытый текст, содержащейся здесь.

Последний раз редактировалось edd1966; 04.10.2022 в 17:24.
edd1966 вне форума   Ответить с цитированием
16 пользователя(ей) сказали cпасибо:
Гаврила60 (04.10.2022), ГеннадийС161 (24.10.2022), Дмитрий (04.10.2022), Джонка (04.10.2022), bobrovich (04.10.2022), Крепыш (06.10.2022), FLHTYFKBY (23.10.2022), Jump (04.10.2022), mbt (04.10.2022), Oleg1972 (04.10.2022), philis (05.10.2022), qwerty21 (22.10.2022), serg282 (05.10.2022), SergeL (04.10.2022), tamduha65 (05.10.2022), vozduh05 (04.10.2022)
Старый 04.10.2022, 16:19   #2
edd1966
VIP
 
Аватар для edd1966
 

Регистрация: 09.02.2014
Адрес: Россия,Северо-западный федеральный округ
Сообщений: 662
Сказал(а) спасибо: 2,156
Поблагодарили 1,168 раз(а) в 342 сообщениях
edd1966 репутация неоспоримаedd1966 репутация неоспоримаedd1966 репутация неоспоримаedd1966 репутация неоспоримаedd1966 репутация неоспоримаedd1966 репутация неоспоримаedd1966 репутация неоспоримаedd1966 репутация неоспоримаedd1966 репутация неоспоримаedd1966 репутация неоспоримаedd1966 репутация неоспорима
По умолчанию

Здесь немного о концерте : - https://dzen.ru/media/leonidmasterok...e17b2c98f77cfd
edd1966 вне форума   Ответить с цитированием
Пользователь сказал cпасибо:
SergeL (04.10.2022)
Старый 04.10.2022, 19:38   #3
Oleg1972
VIP
 
Аватар для Oleg1972
 

Регистрация: 27.12.2014
Сообщений: 751
Сказал(а) спасибо: 1,558
Поблагодарили 732 раз(а) в 450 сообщениях
Oleg1972 репутация неоспоримаOleg1972 репутация неоспоримаOleg1972 репутация неоспоримаOleg1972 репутация неоспоримаOleg1972 репутация неоспоримаOleg1972 репутация неоспоримаOleg1972 репутация неоспоримаOleg1972 репутация неоспоримаOleg1972 репутация неоспоримаOleg1972 репутация неоспоримаOleg1972 репутация неоспорима
По умолчанию

edd1966,
Спасибо за релиз!
Oleg1972 вне форума   Ответить с цитированием
Пользователь сказал cпасибо:
edd1966 (04.10.2022)
Старый 22.10.2022, 20:29   #4
SergeL
VIP
 

Регистрация: 04.10.2018
Адрес: Сверхдержава. Бывшая.
Сообщений: 2,782
Сказал(а) спасибо: 6,820
Поблагодарили 1,646 раз(а) в 1,204 сообщениях
SergeL репутация неоспоримаSergeL репутация неоспоримаSergeL репутация неоспоримаSergeL репутация неоспоримаSergeL репутация неоспоримаSergeL репутация неоспоримаSergeL репутация неоспоримаSergeL репутация неоспоримаSergeL репутация неоспоримаSergeL репутация неоспоримаSergeL репутация неоспорима
По умолчанию

REM GENRE "Chanson, Pop, Rock & Roll"
TITLE "Динамик - Концерт в Кирове 1982"
FILE "Динамик 1982. часть 1.FLAC" WAVE
TRACK 01 AUDIO
TITLE "Кто Не Успел, Тот Опоздал"
INDEX 01 00:00:00
TRACK 02 AUDIO
TITLE "Мама, Я Попал В Беду"
INDEX 01 04:56:00
TRACK 03 AUDIO
TITLE "Мячик"
INDEX 01 11:52:00
TRACK 04 AUDIO
TITLE "По Прежнему Вдвоем (Капюшон)"
INDEX 01 15:42:00
TRACK 05 AUDIO
TITLE "Спортлото"
INDEX 01 20:40:00
TRACK 06 AUDIO
TITLE "Музыканты"
INDEX 01 27:40:00
TRACK 07 AUDIO
TITLE "На Пляже (Плещет Волна)"
INDEX 01 36:34:00

FILE "Динамик 1982. часть 2.FLAC" WAVE
TRACK 08 AUDIO
TITLE "Лед Слезы Льет"
INDEX 01 00:00:00
TRACK 09 AUDIO
TITLE "Ливень"
INDEX 01 05:06:00
TRACK 10 AUDIO
TITLE "Я Возвращался Домой"
INDEX 01 11:21:00
TRACK 11 AUDIO
TITLE "17 Лет"
INDEX 01 15:08:00
TRACK 12 AUDIO
TITLE "Делай Физзарядку"
INDEX 01 18:09:00
TRACK 13 AUDIO
TITLE "Мама Купила Мне Гитару"
INDEX 01 29:22:00
SergeL вне форума   Ответить с цитированием
Пользователь сказал cпасибо:
ГеннадийС161 (24.10.2022)
Старый 24.10.2022, 09:21   #5
ГеннадийС161
VIP
 

Регистрация: 21.06.2015
Адрес: Ростов-на-Дону
Сообщений: 572
Сказал(а) спасибо: 2,270
Поблагодарили 408 раз(а) в 292 сообщениях
ГеннадийС161 репутация неоспоримаГеннадийС161 репутация неоспоримаГеннадийС161 репутация неоспоримаГеннадийС161 репутация неоспоримаГеннадийС161 репутация неоспоримаГеннадийС161 репутация неоспоримаГеннадийС161 репутация неоспоримаГеннадийС161 репутация неоспоримаГеннадийС161 репутация неоспоримаГеннадийС161 репутация неоспоримаГеннадийС161 репутация неоспорима
По умолчанию

Добрый день!
Спасибо edd1966 за релиз и SergeL за КУЕ файл.

Часть 2 может не открываться, т.к. файл называется "Дтнамик 1982. часть 2", а в КУЕ правильно "Динамик......". Либо там, либо там надо поменять буковку.....
__________________
С уважением, Геннадий.
ГеннадийС161 вне форума   Ответить с цитированием
Пользователь сказал cпасибо:
SergeL (24.10.2022)
Ответ

Закладки

Опции темы
Опции просмотра

Ваши права в разделе
Вы не можете создавать новые темы
Вы не можете отвечать в темах
Вы не можете прикреплять вложения
Вы не можете редактировать свои сообщения

BB коды Вкл.
Смайлы Вкл.
[IMG] код Вкл.
HTML код Выкл.

Быстрый переход


Часовой пояс GMT +3, время: 12:48.


Powered by vBulletin® Version 3.8.2
Copyright ©2000 - 2022, Jelsoft Enterprises Ltd. Перевод: zCarot
Rambler's Top100 Республика Татарстан - Каталог сайтов