Все Тут Online
Все Тут Online
Новые сообщения
Все сообщения за последних 24 часа
Все сообщения за последнюю неделю
Расширенный Поиск

   
Меню сайта:
Главная
Форум
Чат
- Online приложения:
- Игры
- Выбор стиля:
- FAQ
- Для начинающих

Вернуться   Все Тут Online > ОЦИФРОВКИ ВИНИЛА (Lossless) > Оцифровки ВИНИЛА пользователей нашего форума > В гостях у Вячеслава (ник bobrovich) > Раздел собственных оцифровок с винила

Старый 03.03.2019, 20:47   #1
bobrovich
Супер-модератор
 

Регистрация: 27.09.2015
Сообщений: 8,599
Сказал(а) спасибо: 5,317
Поблагодарили 17,258 раз(а) в 6,421 сообщениях
bobrovich репутация неоспоримаbobrovich репутация неоспоримаbobrovich репутация неоспоримаbobrovich репутация неоспоримаbobrovich репутация неоспоримаbobrovich репутация неоспоримаbobrovich репутация неоспоримаbobrovich репутация неоспоримаbobrovich репутация неоспоримаbobrovich репутация неоспоримаbobrovich репутация неоспорима
По умолчанию ДЕМИС РУССОС‎ – Большой Успех - 1979. 2LP. (ПОТРЕКОВО. Ташкентский завод. Мелодия)

[B][I][SIZE="4"][FONT="Times New Roman"]



A1 Когда-то, Где-то = Someday, Somewhere
A2 Навсегда, Навсегда = Forever And Ever
A3 Бархатные Утра = Velvet Mornings
A4 Без Тебя = Without You
A5 Моя Причина = My Reason
B1 Мое Единственное Очарование = My Only Fascination
B2 Тени = Shadows
B3 Прошли Хорошие Дни = Good Days Have Gone
B4 Конец Строки = End Of Line
B5 Прощай, Любовь Моя, Прощай = Good Bye, My Love, Good Bye

A1 Будем Танцевать = We Shall Dance
A2 Нет Выхода = No Way Out
A3 Скажи, Что Любишь Меня = Say You Love Me
A4 Пусть Это Буду Я = Let It Be Me
A5 Звездный Художник = Le Peintre Des Etoiles
B1 Когда Я Малыш = When I Am A Kid
B2 Друг Мой Ветер = My Friend The Wind
B3 Повелитель Мух = Lord Of The Flies
B4 Ребекка = Rebecca
B5 От Сувенира К Сувениру = From Souvenirs To Souvenirs



Скрытый текст (вы должны зарегистрироваться или войти под своим логином):
У вас нет прав чтобы видеть скрытый текст, содержащейся здесь.

Последний раз редактировалось bobrovich; 23.02.2020 в 15:21.
bobrovich на форуме   Ответить с цитированием
6 пользователя(ей) сказали cпасибо:
Бархан (14.03.2019), Дмитрий (03.03.2019), copir (07.04.2019), mbt (27.04.2019), Сергей 63 (23.02.2020), Pensioneer (31.07.2020)
Старый 04.03.2019, 04:08   #2
deepsmr
Активный
 
Аватар для deepsmr
 

Регистрация: 04.03.2019
Сообщений: 6
Сказал(а) спасибо: 3
Поблагодарили 2 раз(а) в 1 сообщении
deepsmr на пути к лучшему
По умолчанию

А вот за Демиса вообще отдельная БЛАГОДАРНОСТЬ !!! С П А С И Б О !!!
deepsmr вне форума   Ответить с цитированием
2 пользователя(ей) сказали cпасибо:
Дмитрий (04.03.2019), bobrovich (04.03.2019)
Старый 05.03.2019, 09:01   #3
Дмитрий
Администратор
 
Аватар для Дмитрий
 
Турниров выиграно: 1

Регистрация: 12.12.2008
Адрес: Москва прошлого тысячелетия.
Сообщений: 184,397
Сказал(а) спасибо: 36,295
Поблагодарили 197,042 раз(а) в 72,372 сообщениях
Дмитрий репутация неоспоримаДмитрий репутация неоспоримаДмитрий репутация неоспоримаДмитрий репутация неоспоримаДмитрий репутация неоспоримаДмитрий репутация неоспоримаДмитрий репутация неоспоримаДмитрий репутация неоспоримаДмитрий репутация неоспоримаДмитрий репутация неоспоримаДмитрий репутация неоспорима
По умолчанию

Код:
REM DATE 1979
PERFORMER "Демис Руссос"
TITLE "Большой Успех 1"
FILE "1 СТОРОНА.wav" WAVE
  TRACK 01 AUDIO
TITLE "A1 Когда-то, Где-то = Someday, Somewhere"
    INDEX 01 00:00:00
  TRACK 02 AUDIO
TITLE "A2 Навсегда, Навсегда = Forever And Ever " 
    INDEX 01 03:02:64
  TRACK 03 AUDIO
TITLE "A3 Бархатные Утра = Velvet Mornings "
    INDEX 01 06:41:20
  TRACK 04 AUDIO
TITLE "A4 Без Тебя = Without You "
    INDEX 01 10:18:45
  TRACK 05 AUDIO
TITLE "A5 Моя Причина = My Reason"
    INDEX 01 12:17:47
FILE "2 СТОРОНА.wav" WAVE
  TRACK 06 AUDIO
TITLE "B1 Мое Единственное Очарование = My Only Fascination" 
    INDEX 01 00:00:00
  TRACK 07 AUDIO
TITLE "B2 Тени = Shadows "
    INDEX 01 03:41:24
  TRACK 08 AUDIO
TITLE "B3 Прошли Хорошие Дни = Good Days Have Gone"
    INDEX 01 07:23:16
  TRACK 09 AUDIO
TITLE "B4 Конец Строки = End Of Line "
    INDEX 01 11:04:43
  TRACK 10 AUDIO
TITLE "B5 Прощай, Любовь Моя, Прощай = Good Bye, My Love, Good Bye"
    INDEX 01 13:17:69
Код:
REM DATE 1979
PERFORMER "Демис Руссос"
TITLE "Большой успех 2"
FILE "3 СТОРОНА.wav" WAVE
  TRACK 01 AUDIO
TITLE "A1 Будем Танцевать = We Shall Dance"
    INDEX 01 00:00:00
  TRACK 02 AUDIO
TITLE "A2 Нет Выхода = No Way Out "
    INDEX 01 03:33:54
  TRACK 03 AUDIO
TITLE "A3 Скажи, Что Любишь Меня = Say You Love Me "
    INDEX 01 06:56:37
  TRACK 04 AUDIO
TITLE "A4 Пусть Это Буду Я = Let It Be Me "
    INDEX 01 09:50:21
  TRACK 05 AUDIO
TITLE "A5 Звездный Художник = Le Peintre Des Etoiles"
    INDEX 01 13:22:35
FILE "4 СТОРОНА.wav" WAVE
  TRACK 06 AUDIO
TITLE "B1 Когда Я Малыш = When I Am A Kid "
    INDEX 01 00:00:00
  TRACK 07 AUDIO
TITLE "B2 Друг Мой Ветер = My Friend The Wind"
    INDEX 01 03:27:20
  TRACK 08 AUDIO
TITLE "B3 Повелитель Мух = Lord Of The Flies "
    INDEX 01 07:22:37
  TRACK 09 AUDIO
TITLE "B4 Ребекка = Rebecca "
    INDEX 01 11:43:74
  TRACK 10 AUDIO
TITLE "B5 От Сувенира К Сувениру = From Souvenirs To Souvenirs"
    INDEX 01 15:12:25

Последний раз редактировалось bobrovich; 23.02.2020 в 15:23.
Дмитрий вне форума   Ответить с цитированием
Старый 05.03.2019, 09:07   #4
bobrovich
Супер-модератор
 

Регистрация: 27.09.2015
Сообщений: 8,599
Сказал(а) спасибо: 5,317
Поблагодарили 17,258 раз(а) в 6,421 сообщениях
bobrovich репутация неоспоримаbobrovich репутация неоспоримаbobrovich репутация неоспоримаbobrovich репутация неоспоримаbobrovich репутация неоспоримаbobrovich репутация неоспоримаbobrovich репутация неоспоримаbobrovich репутация неоспоримаbobrovich репутация неоспоримаbobrovich репутация неоспоримаbobrovich репутация неоспорима
По умолчанию

Дим, спасибо за куяку и оформление!
bobrovich на форуме   Ответить с цитированием
Старый 23.02.2020, 15:12   #5
Сергей 63
Активный
 

Регистрация: 13.02.2020
Сообщений: 19
Сказал(а) спасибо: 41
Поблагодарили 7 раз(а) в 7 сообщениях
Сергей 63 скоро придёт к известности
По умолчанию

bobrovich, здравствуйте . Ссылки на скачивание не рабочие , проверти пожалуйста .
Сергей 63 вне форума   Ответить с цитированием
Старый 23.02.2020, 15:22   #6
bobrovich
Супер-модератор
 

Регистрация: 27.09.2015
Сообщений: 8,599
Сказал(а) спасибо: 5,317
Поблагодарили 17,258 раз(а) в 6,421 сообщениях
bobrovich репутация неоспоримаbobrovich репутация неоспоримаbobrovich репутация неоспоримаbobrovich репутация неоспоримаbobrovich репутация неоспоримаbobrovich репутация неоспоримаbobrovich репутация неоспоримаbobrovich репутация неоспоримаbobrovich репутация неоспоримаbobrovich репутация неоспоримаbobrovich репутация неоспорима
По умолчанию

Обновил ссылку.
bobrovich на форуме   Ответить с цитированием
Старый 23.02.2020, 15:32   #7
Сергей 63
Активный
 

Регистрация: 13.02.2020
Сообщений: 19
Сказал(а) спасибо: 41
Поблагодарили 7 раз(а) в 7 сообщениях
Сергей 63 скоро придёт к известности
По умолчанию

bobrovich, спасибо за оперативность . С праздником !
Сергей 63 вне форума   Ответить с цитированием
Пользователь сказал cпасибо:
bobrovich (23.02.2020)
Ответ

Закладки

Опции темы
Опции просмотра

Ваши права в разделе
Вы не можете создавать новые темы
Вы не можете отвечать в темах
Вы не можете прикреплять вложения
Вы не можете редактировать свои сообщения

BB коды Вкл.
Смайлы Вкл.
[IMG] код Вкл.
HTML код Выкл.

Быстрый переход


Часовой пояс GMT +3, время: 17:28.


Powered by vBulletin® Version 3.8.2
Copyright ©2000 - 2022, Jelsoft Enterprises Ltd. Перевод: zCarot
Rambler's Top100 Республика Татарстан - Каталог сайтов