Все Тут Online
Все Тут Online
Новые сообщения
Все сообщения за последних 24 часа
Все сообщения за последнюю неделю
Расширенный Поиск

   
Меню сайта:
Главная
Форум
Чат
- Online приложения:
- Игры
- Выбор стиля:
- FAQ
- Для начинающих

Вернуться   Все Тут Online > ОЦИФРОВКИ ВИНИЛА (Lossless) > РОК МУЗЫКА (Lossless) > Зарубежный Rock (lossless)

Старый 21.11.2016, 12:22   #81
lito
Активный
 
Аватар для lito
 

Регистрация: 15.11.2016
Сообщений: 32
Сказал(а) спасибо: 30
Поблагодарили 53 раз(а) в 34 сообщениях
lito как роза среди колючекlito как роза среди колючекlito как роза среди колючек
По умолчанию

Цитата:
Сообщение от андропер2 Посмотреть сообщение
lito, тебе никто не скажет какие уши, техника будут лучше именно для тебя самого...
Определяешься со своим бюджетом, идешь например в магазин doctorhead в Москве или Питере, прихватив свой девайс (если это плеер, если не плеер, тот там тоже можно сделать твою связку) и закачав несколько записей разных жанров, которые в основном будешь слушать, садишься и слушаешь там, можно целый день и не один, подбирая лучшую пару под твой бюджет. По крайней мере я так и буду делать в следующий раз...Вкусы у всех разные, а уши тем более
Проблема в том, что я не из Москвы и не из России вообще, к сожалению у нас в стране и городе нет специализированных магазинов аудио техники. И прослушать и оценить тот или иной девайс зачастую физически невозможно. По большей части приходится полагаться на обзоры и мнения других. И заказывать черт знает где, например на ebay или amazon.
lito вне форума   Ответить с цитированием
Старый 21.11.2016, 12:25   #82
lito
Активный
 
Аватар для lito
 

Регистрация: 15.11.2016
Сообщений: 32
Сказал(а) спасибо: 30
Поблагодарили 53 раз(а) в 34 сообщениях
lito как роза среди колючекlito как роза среди колючекlito как роза среди колючек
По умолчанию

Цитата:
Сообщение от glot39 Посмотреть сообщение
У меня есть они. Они открытые, очень хороший ровный звук. Буквально на днях за 20 т.р. предложили, ещё не прогретые (новые практически). Думаю, если бы не сидел без работы почти год, взял бы не задумываясь
Вам для каких целей? На улице не послушать, дома то что доктор прописал, но не забывайте что они про и открытые.
Нужны для прослушивания дома, скажем так для стационарного использования, предпочтительные стили металл, рок, классика. На данный момент слушаю на аудиотехнике ATH-M50.

Последний раз редактировалось lito; 21.11.2016 в 12:33.
lito вне форума   Ответить с цитированием
Старый 21.11.2016, 12:33   #83
андропер2
Активный
 

Регистрация: 20.10.2016
Сообщений: 34
Сказал(а) спасибо: 26
Поблагодарили 23 раз(а) в 18 сообщениях
андропер2 скоро придёт к известностиандропер2 скоро придёт к известности
По умолчанию

Цитата:
Сообщение от lito Посмотреть сообщение
Проблема в том, что я не из Москвы и не из России вообще, к сожалению у нас в стране и городе нет специализированных магазинов аудио техники. И прослушать и оценить тот или иной девайс зачастую физически невозможно. По большей части приходится полагаться на обзоры и мнения других. И заказывать черт знает где, например на ebay или amazon.
У меня такая же проблема, я с периферии России....
андропер2 вне форума   Ответить с цитированием
Старый 21.11.2016, 12:45   #84
glot39
Активный
 
Аватар для glot39
 

Регистрация: 14.12.2014
Сообщений: 2,279
Сказал(а) спасибо: 3,505
Поблагодарили 9,079 раз(а) в 1,686 сообщениях
glot39 репутация неоспоримаglot39 репутация неоспоримаglot39 репутация неоспоримаglot39 репутация неоспоримаglot39 репутация неоспоримаglot39 репутация неоспоримаglot39 репутация неоспоримаglot39 репутация неоспоримаglot39 репутация неоспоримаglot39 репутация неоспоримаglot39 репутация неоспорима
По умолчанию

В данных AKG вы услышите все изъяны музыки, т.е. источник должен быть на уровне. В целом я в них отдыхаю
glot39 вне форума   Ответить с цитированием
Пользователь сказал cпасибо:
lito (21.11.2016)
Старый 21.11.2016, 13:40   #85
12filmstw
Активный
 

Регистрация: 23.10.2015
Сообщений: 11
Сказал(а) спасибо: 31
Поблагодарили 13 раз(а) в 10 сообщениях
12filmstw скоро придёт к известности
По умолчанию

Цитата:
Сообщение от lito Посмотреть сообщение
Нужны для прослушивания дома, скажем так для стационарного использования, предпочтительные стили металл, рок, классика. На данный момент слушаю на аудиотехнике ATH-M50.
У меня AKG k240 600 ohm, отлично играют все эти стили.
12filmstw вне форума   Ответить с цитированием
2 пользователя(ей) сказали cпасибо:
Дмитрий (21.11.2016), lito (21.11.2016)
Старый 29.11.2016, 21:15   #86
lito
Активный
 
Аватар для lito
 

Регистрация: 15.11.2016
Сообщений: 32
Сказал(а) спасибо: 30
Поблагодарили 53 раз(а) в 34 сообщениях
lito как роза среди колючекlito как роза среди колючекlito как роза среди колючек
По умолчанию

Кстати есть нюанс по поводу воспроизведения винил рипов на портатив hifi плеерах (точно замечена эта проблема на плеерах Fiio и Cayin), например когда идет 1 cue файл и несколько файлов с аудио, вот например как в этой раздаче. Большинство плееров не воспринимаю мультифайловые CUE, когда в нем идет ссылка на несколько аудиофайлов. Я решил проблему следующим образом:
- Создал копии CUE файлов, согласно количеству аудиофайлов.
- Переименовал каждый CUE файл чтобы он соответствовал названию аудио файла.
- Отредактировал каждый CUE файл таким образом, чтобы его содержание соответствовало аудиофайлу, остальное просто вырезал. Например в File1.cue только треки которые идут в File1.dsf, и тд.

В итоге в плеере отображаются все файлы по порядку, как и должно быть.

Конечно в обычной ситуации можно просто разрезать треки пофайлово, например через AIMP, но в случае с DSD это проблематично что то редактировать и нарезать, без конвертации в PCM и соответственно потери качества.
lito вне форума   Ответить с цитированием
2 пользователя(ей) сказали cпасибо:
glot39 (29.11.2016), m3ysy (24.01.2019)
Старый 29.11.2016, 21:37   #87
Дмитрий
Администратор
 
Аватар для Дмитрий
 
Турниров выиграно: 1

Регистрация: 12.12.2008
Адрес: Москва прошлого тысячелетия.
Сообщений: 233,447
Сказал(а) спасибо: 43,219
Поблагодарили 257,873 раз(а) в 95,722 сообщениях
Дмитрий репутация неоспоримаДмитрий репутация неоспоримаДмитрий репутация неоспоримаДмитрий репутация неоспоримаДмитрий репутация неоспоримаДмитрий репутация неоспоримаДмитрий репутация неоспоримаДмитрий репутация неоспоримаДмитрий репутация неоспоримаДмитрий репутация неоспоримаДмитрий репутация неоспорима
По умолчанию

Ясненько. Вот так значит:

Код:
REM GENRE Power Metal
REM DATE 2001
REM COMMENT r@sh (LYRA DELOS)
PERFORMER "Avantasia"
TITLE "The Metal Opera Pt.I (Germany, AFM 040-11)"
FILE "A. Avantasia - The Metal Opera Pt.I.dsf" WAVE
TRACK 01 AUDIO
TITLE "Prelude"
INDEX 01 00:00:00
TRACK 02 AUDIO
TITLE "Reach Out For The Light"
INDEX 01 01:11:08
TRACK 03 AUDIO
TITLE "Serpents In Paradise"
INDEX 01 07:43:63
TRACK 04 AUDIO
TITLE "Malleus Maleficarum"
INDEX 01 14:01:48
Код:
REM GENRE Power Metal
REM DATE 2001
REM COMMENT r@sh (LYRA DELOS)
PERFORMER "Avantasia"
TITLE "The Metal Opera Pt.I (Germany, AFM 040-11)"
FILE "B. Avantasia - The Metal Opera Pt.I.dsf" WAVE
TRACK 05 AUDIO
TITLE "Breaking Away"
INDEX 01 00:00:00
TRACK 06 AUDIO
TITLE "Farewell"
INDEX 01 04:36:52
TRACK 07 AUDIO
TITLE "The Glory Of Rome"
INDEX 01 11:10:28
Код:
REM GENRE Power Metal
REM DATE 2001
REM COMMENT r@sh (LYRA DELOS)
PERFORMER "Avantasia"
TITLE "The Metal Opera Pt.I (Germany, AFM 040-11)"
FILE "C. Avantasia - The Metal Opera Pt.I.dsf" WAVE
TRACK 08 AUDIO
TITLE "In Nomine Patris"
INDEX 01 00:00:00
TRACK 09 AUDIO
TITLE "Avantasia"
INDEX 01 01:05:45
TRACK 10 AUDIO
TITLE "A New Dimension"
INDEX 01 06:38:68
TRACK 11 AUDIO
TITLE "Inside"
INDEX 01 08:19:19
TRACK 12 AUDIO
TITLE "Sign Of The Cross"
INDEX 01 10:44:54
Код:
REM GENRE Power Metal
REM DATE 2001
REM COMMENT r@sh (LYRA DELOS)
PERFORMER "Avantasia"
TITLE "The Metal Opera Pt.I (Germany, AFM 040-11)"
FILE "D. Avantasia - The Metal Opera Pt.I.dsf" WAVE
TRACK 13 AUDIO
TITLE "The Tower"
INDEX 01 00:00:00
TRACK 14 AUDIO
TITLE "Avantasia (Radio Single)"
INDEX 01 09:45:30
__________________
О нас думают плохо лишь те, кто хуже нас. А те, кто лучше нас, им просто не до нас.
--Омар Хайям

Обновления по запросу — на Я.Ди. «Мэйл-облако» для тех, кто помогает нашему интернет-проекту, и для тех, кто хотел бы это делать, но пока не знает, как.

Помогая форуму ВТО, вы прежде всего помогаете себе! А не делаете что-то абстрактное для «других», совершенно незнакомых и безразличных вам людей.
Дмитрий вне форума   Ответить с цитированием
Пользователь сказал cпасибо:
glot39 (29.11.2016)
Старый 29.11.2016, 21:41   #88
lito
Активный
 
Аватар для lito
 

Регистрация: 15.11.2016
Сообщений: 32
Сказал(а) спасибо: 30
Поблагодарили 53 раз(а) в 34 сообщениях
lito как роза среди колючекlito как роза среди колючекlito как роза среди колючек
Хорошо

Цитата:
Сообщение от Дмитрий Посмотреть сообщение
Ясненько. Вот так значит:

Код:
REM GENRE Power Metal
REM DATE 2001
REM COMMENT r@sh (LYRA DELOS)
PERFORMER "Avantasia"
TITLE "The Metal Opera Pt.I (Germany, AFM 040-11)"
FILE "A. Avantasia - The Metal Opera Pt.I.dsf" WAVE
TRACK 01 AUDIO
TITLE "Prelude"
INDEX 01 00:00:00
TRACK 02 AUDIO
TITLE "Reach Out For The Light"
INDEX 01 01:11:08
TRACK 03 AUDIO
TITLE "Serpents In Paradise"
INDEX 01 07:43:63
TRACK 04 AUDIO
TITLE "Malleus Maleficarum"
INDEX 01 14:01:48
Код:
REM GENRE Power Metal
REM DATE 2001
REM COMMENT r@sh (LYRA DELOS)
PERFORMER "Avantasia"
TITLE "The Metal Opera Pt.I (Germany, AFM 040-11)"
FILE "B. Avantasia - The Metal Opera Pt.I.dsf" WAVE
TRACK 05 AUDIO
TITLE "Breaking Away"
INDEX 01 00:00:00
TRACK 06 AUDIO
TITLE "Farewell"
INDEX 01 04:36:52
TRACK 07 AUDIO
TITLE "The Glory Of Rome"
INDEX 01 11:10:28
Код:
REM GENRE Power Metal
REM DATE 2001
REM COMMENT r@sh (LYRA DELOS)
PERFORMER "Avantasia"
TITLE "The Metal Opera Pt.I (Germany, AFM 040-11)"
FILE "C. Avantasia - The Metal Opera Pt.I.dsf" WAVE
TRACK 08 AUDIO
TITLE "In Nomine Patris"
INDEX 01 00:00:00
TRACK 09 AUDIO
TITLE "Avantasia"
INDEX 01 01:05:45
TRACK 10 AUDIO
TITLE "A New Dimension"
INDEX 01 06:38:68
TRACK 11 AUDIO
TITLE "Inside"
INDEX 01 08:19:19
TRACK 12 AUDIO
TITLE "Sign Of The Cross"
INDEX 01 10:44:54
Код:
REM GENRE Power Metal
REM DATE 2001
REM COMMENT r@sh (LYRA DELOS)
PERFORMER "Avantasia"
TITLE "The Metal Opera Pt.I (Germany, AFM 040-11)"
FILE "D. Avantasia - The Metal Opera Pt.I.dsf" WAVE
TRACK 13 AUDIO
TITLE "The Tower"
INDEX 01 00:00:00
TRACK 14 AUDIO
TITLE "Avantasia (Radio Single)"
INDEX 01 09:45:30
Именно!
lito вне форума   Ответить с цитированием
2 пользователя(ей) сказали cпасибо:
Дмитрий (29.11.2016), glot39 (29.11.2016)
Старый 29.11.2016, 21:46   #89
Дмитрий
Администратор
 
Аватар для Дмитрий
 
Турниров выиграно: 1

Регистрация: 12.12.2008
Адрес: Москва прошлого тысячелетия.
Сообщений: 233,447
Сказал(а) спасибо: 43,219
Поблагодарили 257,873 раз(а) в 95,722 сообщениях
Дмитрий репутация неоспоримаДмитрий репутация неоспоримаДмитрий репутация неоспоримаДмитрий репутация неоспоримаДмитрий репутация неоспоримаДмитрий репутация неоспоримаДмитрий репутация неоспоримаДмитрий репутация неоспоримаДмитрий репутация неоспоримаДмитрий репутация неоспоримаДмитрий репутация неоспорима
По умолчанию

Для андроидофонов (смартфонов и планшетов) тоже также надо разбивать.
__________________
О нас думают плохо лишь те, кто хуже нас. А те, кто лучше нас, им просто не до нас.
--Омар Хайям

Обновления по запросу — на Я.Ди. «Мэйл-облако» для тех, кто помогает нашему интернет-проекту, и для тех, кто хотел бы это делать, но пока не знает, как.

Помогая форуму ВТО, вы прежде всего помогаете себе! А не делаете что-то абстрактное для «других», совершенно незнакомых и безразличных вам людей.
Дмитрий вне форума   Ответить с цитированием
Пользователь сказал cпасибо:
glot39 (29.11.2016)
Старый 30.11.2016, 13:17   #90
skuz74
Активный
 
Аватар для skuz74
 

Регистрация: 30.12.2012
Адрес: Башкортостан
Сообщений: 1,113
Сказал(а) спасибо: 849
Поблагодарили 1,532 раз(а) в 602 сообщениях
skuz74 репутация неоспоримаskuz74 репутация неоспоримаskuz74 репутация неоспоримаskuz74 репутация неоспоримаskuz74 репутация неоспоримаskuz74 репутация неоспоримаskuz74 репутация неоспоримаskuz74 репутация неоспоримаskuz74 репутация неоспоримаskuz74 репутация неоспоримаskuz74 репутация неоспорима
По умолчанию

Спасибо за неожиданное знакомство с новым для меня исполнителем. Металл не мой любимый стиль, но данный альбом местами довольно таки понравился, очень оригинальные ходы. Записано все на высшем уровне, особенно в DSD, один минус - диск шумноватый, чувствуется на тихих фрагментах. Спасибо большое.
skuz74 вне форума   Ответить с цитированием
Пользователь сказал cпасибо:
glot39 (30.11.2016)
Ответ

Закладки

Опции темы
Опции просмотра

Ваши права в разделе
Вы не можете создавать новые темы
Вы не можете отвечать в темах
Вы не можете прикреплять вложения
Вы не можете редактировать свои сообщения

BB коды Вкл.
Смайлы Вкл.
[IMG] код Вкл.
HTML код Выкл.

Быстрый переход


Часовой пояс GMT +3, время: 13:01.


Powered by vBulletin® Version 3.8.2
Copyright ©2000 - 2024, Jelsoft Enterprises Ltd. Перевод: zCarot
Rambler's Top100 Республика Татарстан - Каталог сайтов