Все Тут Online
Все Тут Online
Новые сообщения
Все сообщения за последних 24 часа
Все сообщения за последнюю неделю
Расширенный Поиск

   
Меню сайта:
Главная
Форум
Чат
- Online приложения:
- Игры
- Выбор стиля:
- FAQ
- Для начинающих

Вернуться   Все Тут Online > Оцифровки ВИНИЛА пользователей нашего форума > Оцифровки Борис 63 (Technics SL-1200 MK3D // Victor QL-A7 [Audio-Technica AT440MLa] => Accuphase 200

Старый 17.07.2018, 12:58   #1
Борис 63
VIP
 
Аватар для Борис 63
 

Регистрация: 01.02.2010
Адрес: СССР Москва
Сообщений: 15,281
Сказал(а) спасибо: 9,045
Поблагодарили 54,824 раз(а) в 8,662 сообщениях
Борис 63 репутация неоспоримаБорис 63 репутация неоспоримаБорис 63 репутация неоспоримаБорис 63 репутация неоспоримаБорис 63 репутация неоспоримаБорис 63 репутация неоспоримаБорис 63 репутация неоспоримаБорис 63 репутация неоспоримаБорис 63 репутация неоспоримаБорис 63 репутация неоспоримаБорис 63 репутация неоспорима
По умолчанию (24/96) Smokie - Bright Lights & Back Alleys (lossless)









Оцифровка с пластинки Игоря (Капитан_Воронин)
Спасибо ему.

ссылка


Скрытый текст (вы должны зарегистрироваться или войти под своим логином):
У вас нет прав чтобы видеть скрытый текст, содержащейся здесь.
__________________
Ccылка на тему: Как скачивать с Яндекс диска!

Чтобы быстро скачать чужой опубликованный файл, сохраните его на свой Диск. На вашем Диске файл окажется мгновенно, а свои файлы вы всегда можете скачать без ограничений.
Борис 63 вне форума   Ответить с цитированием
8 пользователя(ей) сказали cпасибо:
Васили (15.09.2018), александр7500 (17.11.2019), cthutq_1956 (17.07.2018), glot39 (17.07.2018), Никита9988 (18.07.2018), ТОМ (25.10.2018), pofnutiy (18.07.2018), RostiC (17.07.2018)
Старый 18.07.2018, 19:06   #2
RostiC
VIP
 

Регистрация: 04.03.2017
Сообщений: 68
Сказал(а) спасибо: 648
Поблагодарили 64 раз(а) в 38 сообщениях
RostiC как роза среди колючекRostiC как роза среди колючекRostiC как роза среди колючекRostiC как роза среди колючек
По умолчанию

Спасибо!
Я так понял, что пластинка вышла в Болгарии в 1979 г.?
Тогда вот CUE:
REM GENRE Hard Rock / Soft Rock
REM DATE 1979 (1977)
REM LABEL Балкантон, ВТА 11007
REM COMMENT "Equipment: 'Victor QL-A7' => AT440MLa => 'Accuphase 200'"
REM COMMENT "Specially for http://vsetutonline.com"
REM COMMENT "Оцифровка - Борис 63"
PERFORMER "Smokie"
TITLE "Bright Lights & Back Alleys -Яркий свет и тёмные улицы"
FILE "Smokie - Bright Lights & Back Alleys.flac" WAVE
TRACK 01 AUDIO
TITLE "It's Your Life -Твоя жизнь"
PERFORMER "Smokie"
INDEX 01 00:03:00
TRACK 02 AUDIO
TITLE "Не могу остаться здесь в этот вечер"
PERFORMER "Smokie"
INDEX 01 03:37:00
TRACK 03 AUDIO
TITLE "Sunshine Avenue -Солнечный бульвар"
PERFORMER "Smokie"
INDEX 01 07:46:30
TRACK 04 AUDIO
TITLE "Think Of Me -Думай обо мне"
PERFORMER "Smokie"
INDEX 01 10:59:30
TRACK 05 AUDIO
TITLE "In The Heat Of The Night -В душную ночь"
PERFORMER "Smokie"
INDEX 01 15:43:00
TRACK 06 AUDIO
TITLE "Needles And Pins -Иголочки"
PERFORMER "Smokie"
INDEX 01 20:31:40
TRACK 07 AUDIO
TITLE "No One Could Ever Love You More -Никто не может тебя любить больше меня"
PERFORMER "Smokie"
INDEX 01 23:19:00
TRACK 08 AUDIO
TITLE "The Dancer -Танцор"
PERFORMER "Smokie"
INDEX 01 25:53:00
TRACK 09 AUDIO
TITLE "Baby It's You -Милая, это ты"
PERFORMER "Smokie"
INDEX 01 29:47:40
TRACK 10 AUDIO
TITLE "Walk Right Back -Вернись"
PERFORMER "Smokie"
INDEX 01 33:42:00
RostiC вне форума   Ответить с цитированием
2 пользователя(ей) сказали cпасибо:
александр7500 (17.11.2019), Борис 63 (18.07.2018)
Старый 18.07.2018, 19:09   #3
Борис 63
VIP
 
Аватар для Борис 63
 

Регистрация: 01.02.2010
Адрес: СССР Москва
Сообщений: 15,281
Сказал(а) спасибо: 9,045
Поблагодарили 54,824 раз(а) в 8,662 сообщениях
Борис 63 репутация неоспоримаБорис 63 репутация неоспоримаБорис 63 репутация неоспоримаБорис 63 репутация неоспоримаБорис 63 репутация неоспоримаБорис 63 репутация неоспоримаБорис 63 репутация неоспоримаБорис 63 репутация неоспоримаБорис 63 репутация неоспоримаБорис 63 репутация неоспоримаБорис 63 репутация неоспорима
По умолчанию

RostiC,

Есть еще фирменная пластинка РАК

Оцифрую , но попозже - будем звук сравнивать.
__________________
Ccылка на тему: Как скачивать с Яндекс диска!

Чтобы быстро скачать чужой опубликованный файл, сохраните его на свой Диск. На вашем Диске файл окажется мгновенно, а свои файлы вы всегда можете скачать без ограничений.
Борис 63 вне форума   Ответить с цитированием
2 пользователя(ей) сказали cпасибо:
bobrovich (18.07.2018), RostiC (18.07.2018)
Старый 18.07.2018, 19:14   #4
RostiC
VIP
 

Регистрация: 04.03.2017
Сообщений: 68
Сказал(а) спасибо: 648
Поблагодарили 64 раз(а) в 38 сообщениях
RostiC как роза среди колючекRostiC как роза среди колючекRostiC как роза среди колючекRostiC как роза среди колючек
По умолчанию

Борис 63,

Да, будет интересно.
RostiC вне форума   Ответить с цитированием
Ответ

Закладки

Опции темы
Опции просмотра

Ваши права в разделе
Вы не можете создавать новые темы
Вы не можете отвечать в темах
Вы не можете прикреплять вложения
Вы не можете редактировать свои сообщения

BB коды Вкл.
Смайлы Вкл.
[IMG] код Вкл.
HTML код Выкл.

Быстрый переход


Часовой пояс GMT +3, время: 16:04.


Powered by vBulletin® Version 3.8.2
Copyright ©2000 - 2024, Jelsoft Enterprises Ltd. Перевод: zCarot
Rambler's Top100 Республика Татарстан - Каталог сайтов