Все Тут Online
Все Тут Online
Новые сообщения
Все сообщения за последних 24 часа
Все сообщения за последнюю неделю
Расширенный Поиск

   
Меню сайта:
Главная
Форум
Чат
- Online приложения:
- Игры
- Выбор стиля:
- FAQ
- Для начинающих

Вернуться   Все Тут Online > ОЦИФРОВКИ ВИНИЛА (Lossless) > ПОП МУЗЫКА, Eurodance, Disco (Lossless), > Зарубежная Поп музыка (lossless)

Старый 25.04.2009, 11:22   #1
Tomas
Новичок
 
Аватар для Tomas
 

Регистрация: 19.11.2008
Адрес: СССР
Сообщений: 8,568
Сказал(а) спасибо: 1,496
Поблагодарили 6,505 раз(а) в 2,134 сообщениях
Tomas репутация неоспоримаTomas репутация неоспоримаTomas репутация неоспоримаTomas репутация неоспоримаTomas репутация неоспоримаTomas репутация неоспоримаTomas репутация неоспоримаTomas репутация неоспоримаTomas репутация неоспоримаTomas репутация неоспоримаTomas репутация неоспорима
По умолчанию Dschinghis Khan - Original Germany Vinil (1979)[16/44][24/96] Lossless



Исполнитель Dschinghis Khan
Альбом Dschinghis Khan 1979
Жанр Disco
Содержание
Side 1:
01.Moskau
02.Komm doch heim
03.Samurai
04.Rocking Son Of Dschinghis Khan
05.Pass auf, der Drache kommt

Side 2:
06.Dschinghis Khan
07.Israel, Israel
08.China Boy
09.Sahara
10.Puszta
11.Der Verräter

Добавлена опция для восстановления 3%
EAC, FLAC, CUE, LOG




Ссылка и пароль:
Скрытый текст (вы должны войти под своим логином или зарегистрироваться и иметь 1 сообщение(ий)):
У вас нет прав чтобы видеть скрытый текст, содержащейся здесь.

Цитата:
Exact Audio Copy V0.99 prebeta 4 from 23. January 2008

Отчёт EAC об извлечении, выполненном 24. апреля 2009, 21:33

Dschinghis Khan / Dschinghis Khan

Дисковод: HL-DT-STDVDRAM GH20NS15 Adapter: 2 ID: 0

Режим чтения : Достоверность
Использование точного потока : Да
Отключение кэша аудио : Да
Использование указателей C2 : Нет

Коррекция смещения при чтении : 667
Способность читать области Lead-in и Lead-out : Нет
Заполнение пропущенных сэмплов тишиной : Да
Удаление блоков с тишиной в начале и конце : Нет
При вычислениях CRC использовались нулевые сэмплы : Да
Интерфейс : Встроенный Win32-интерфейс для Win NT/2000

Выходной формат : Внутренние WAV-операции
Формат сэмплов : 44.100 Гц; 16 бит; стерео


TOC извлечённого CD

Трек | Старт | Длительность | Начальный сектор | Конечный сектор
---------------------------------------------------------------------
1 | 0:00.00 | 6:01.61 | 0 | 27135
2 | 6:01.61 | 4:20.69 | 27136 | 46704
3 | 10:22.55 | 4:45.30 | 46705 | 68109
4 | 15:08.10 | 4:17.70 | 68110 | 87454
5 | 19:26.05 | 3:42.52 | 87455 | 104156
6 | 23:08.57 | 3:06.28 | 104157 | 118134
7 | 26:15.10 | 5:44.30 | 118135 | 143964
8 | 31:59.40 | 4:03.22 | 143965 | 162211
9 | 36:02.62 | 3:04.58 | 162212 | 176069
10 | 39:07.45 | 3:18.12 | 176070 | 190931
11 | 42:25.57 | 5:34.15 | 190932 | 215996


Характеристики диапазона извлечения и сообщения об ошибках

Выбранный диапазон

Имя файла C:\Documents and Settings\Vladimir\Рабочий стол\Dschinghis Khan 1979 Original Germany Vinil\Dschinghis Khan - Dschinghis Khan.wav

Пиковый уровень 100.0 %
Качество диапазона 100.0 %
CRC копии 566B1176
Копирование... OK

Ошибок не произошло

Конец отчёта

Последний раз редактировалось Дмитрий; 25.10.2010 в 23:08.
Tomas вне форума   Ответить с цитированием
7 пользователя(ей) сказали cпасибо:
Дмитрий (06.10.2009), Арбуз (06.10.2011), nvB (30.11.2010), sem_boss (30.04.2016), umberto (18.06.2022), Unker (02.02.2011), YKUT700 (28.09.2022)
Старый 25.10.2010, 21:46   #2
anatol1961
Активный
 
Аватар для anatol1961
 

Регистрация: 17.01.2009
Адрес: На юге... Северного Ледовитого океана
Сообщений: 6,057
Сказал(а) спасибо: 1,104
Поблагодарили 8,592 раз(а) в 2,699 сообщениях
anatol1961 репутация неоспоримаanatol1961 репутация неоспоримаanatol1961 репутация неоспоримаanatol1961 репутация неоспоримаanatol1961 репутация неоспоримаanatol1961 репутация неоспоримаanatol1961 репутация неоспоримаanatol1961 репутация неоспоримаanatol1961 репутация неоспоримаanatol1961 репутация неоспоримаanatol1961 репутация неоспорима
Отправить сообщение для anatol1961 с помощью Skype™
По умолчанию

Dschinghis Khan original Germany vinyl (1979) [24/96] Lossless
__________________
Кто ничего не ждёт, никогда не будет разочарован.
Эрих Мария Ремарк



RLU.RU - сервис коротких ссылок


Зарабатываем деньги смартфоном в системе AppTools
подробнее

Не говорите, что мне нужно делать, тогда я не скажу куда вам пойти.

Последний раз редактировалось anatol1961; 28.10.2010 в 05:10.
anatol1961 вне форума   Ответить с цитированием
Пользователь сказал cпасибо:
vcv10 (14.06.2022)
Старый 25.10.2010, 22:06   #3
Ordenn
Активный
 
Аватар для Ordenn
 

Регистрация: 14.08.2009
Адрес: Bayern
Сообщений: 2,879
Сказал(а) спасибо: 782
Поблагодарили 2,416 раз(а) в 1,015 сообщениях
Ordenn репутация неоспоримаOrdenn репутация неоспоримаOrdenn репутация неоспоримаOrdenn репутация неоспоримаOrdenn репутация неоспоримаOrdenn репутация неоспоримаOrdenn репутация неоспоримаOrdenn репутация неоспоримаOrdenn репутация неоспоримаOrdenn репутация неоспоримаOrdenn репутация неоспорима
По умолчанию

С винилами у меня плохо, при переезде всё в Союзе осталось.
А Чингизами лучше , есть на диске , если интересует залью.
Ordenn вне форума   Ответить с цитированием
Старый 25.10.2010, 22:18   #4
Nemir
Гость
 

Сообщений: n/a
По умолчанию

Вот оно!
  Ответить с цитированием
Старый 29.01.2011, 02:40   #5
yurrikk
Активный
 

Регистрация: 23.01.2011
Сообщений: 335
Сказал(а) спасибо: 355
Поблагодарили 57 раз(а) в 51 сообщениях
yurrikk как роза среди колючекyurrikk как роза среди колючекyurrikk как роза среди колючек
По умолчанию

Tomas - огромное спасибо !!! Отличное качество!!!
yurrikk вне форума   Ответить с цитированием
Старый 02.02.2011, 19:08   #6
777V777
Активный
 
Аватар для 777V777
 

Регистрация: 16.09.2010
Сообщений: 5
Сказал(а) спасибо: 2
Поблагодарили 2 раз(а) в 1 сообщении
777V777 на пути к лучшему
По умолчанию

Музыка детства...
777V777 вне форума   Ответить с цитированием
2 пользователя(ей) сказали cпасибо:
Edius (22.10.2011), sem_boss (29.04.2016)
Старый 14.06.2022, 17:50   #7
IchBinn
Активный
 

Регистрация: 08.06.2022
Сообщений: 2
Сказал(а) спасибо: 0
Поблагодарили 0 раз(а) в 0 сообщениях
IchBinn на пути к лучшему
По умолчанию

Спасибо за альбом!
IchBinn вне форума   Ответить с цитированием
Старый 28.09.2022, 08:06   #8
YKUT700
Активный
 
Аватар для YKUT700
 

Регистрация: 25.09.2022
Сообщений: 3
Сказал(а) спасибо: 259
Поблагодарили 1 раз в 1 сообщении
YKUT700 на пути к лучшему
По умолчанию

Да, в детстве это было круто, а в школе их запрещали слушать как и ногое другое!
YKUT700 вне форума   Ответить с цитированием
Ответ

Закладки

Опции темы
Опции просмотра

Ваши права в разделе
Вы не можете создавать новые темы
Вы не можете отвечать в темах
Вы не можете прикреплять вложения
Вы не можете редактировать свои сообщения

BB коды Вкл.
Смайлы Вкл.
[IMG] код Вкл.
HTML код Выкл.

Быстрый переход


Часовой пояс GMT +3, время: 22:49.


Powered by vBulletin® Version 3.8.2
Copyright ©2000 - 2022, Jelsoft Enterprises Ltd. Перевод: zCarot
Rambler's Top100 Республика Татарстан - Каталог сайтов