Все Тут Online
Все Тут Online
Новые сообщения
Все сообщения за последних 24 часа
Все сообщения за последнюю неделю
Расширенный Поиск

   
Меню сайта:
Главная
Форум
Чат
- Online приложения:
- Игры
- Выбор стиля:
- FAQ
- Для начинающих

Вернуться   Все Тут Online > CD (Компакт диски) Lossless и ПОТОКОВОЕ АУДИО - МУЗЫКА БЕЗ ПОТЕРИ КАЧЕСТВА > РОК МУЗЫКА (Lossless) > Зарубежный Rock (lossless)

Старый 19.11.2016, 23:26   #1
pqsyerg
Активный
 
Аватар для pqsyerg
 

Регистрация: 08.11.2015
Адрес: Москва
Сообщений: 212
Сказал(а) спасибо: 176
Поблагодарили 657 раз(а) в 176 сообщениях
pqsyerg репутация неоспоримаpqsyerg репутация неоспоримаpqsyerg репутация неоспоримаpqsyerg репутация неоспоримаpqsyerg репутация неоспоримаpqsyerg репутация неоспоримаpqsyerg репутация неоспоримаpqsyerg репутация неоспоримаpqsyerg репутация неоспоримаpqsyerg репутация неоспоримаpqsyerg репутация неоспорима
По умолчанию Area (1973) Arbeit Macht Frei (Il Lavoro Rende Liberi) [1989, Cramps - CRSCD 001, Italy]



Label: Cramps Records – CRSCD 001
Format: CD, Album
Country: Italy
Released: 1989
Genre: Rock
Style: Jazz Rock, Fusion

Tracklist
1 Luglio, Agosto, Settembre (Nero) 4:27
2 Arbeit Macht Frei 7:56
3 Consapevolezza 6:06
4 Le Labbra Del Tempo 6:00
5 240 Chilometri Da Smirne 5:10
6 L'abbattimento Dello Zeppelin 6:45


Скрытый текст (вы должны зарегистрироваться или войти под своим логином):
У вас нет прав чтобы видеть скрытый текст, содержащейся здесь.
Релиз для тех, кто не чурается такого явления, как "джаз рок" (это когда к басисту и барабанщику, - как правило хорошо играющим, - приходят в гости стремно одетые мужики (ни одной заклепки!), достают дудки и начинают в них дуть. Получается жуткая "музыка", которую хотят слушать далеко не все. Тексты таких "песен" если и существуют, то не отличаются глубоким смыслом, поэтому в стране Сплина и Шнура всё это безобразие не всегда востребовано.)
pqsyerg вне форума   Ответить с цитированием
4 пользователя(ей) сказали cпасибо:
александр69 (19.11.2016), Дмитрий (20.11.2016), glot39 (19.11.2016), kopilovoleg (20.11.2016)
Старый 19.11.2016, 23:29   #2
pqsyerg
Активный
 
Аватар для pqsyerg
 

Регистрация: 08.11.2015
Адрес: Москва
Сообщений: 212
Сказал(а) спасибо: 176
Поблагодарили 657 раз(а) в 176 сообщениях
pqsyerg репутация неоспоримаpqsyerg репутация неоспоримаpqsyerg репутация неоспоримаpqsyerg репутация неоспоримаpqsyerg репутация неоспоримаpqsyerg репутация неоспоримаpqsyerg репутация неоспоримаpqsyerg репутация неоспоримаpqsyerg репутация неоспоримаpqsyerg репутация неоспоримаpqsyerg репутация неоспорима
По умолчанию динамический диапазон

foobar2000 1.3.9 / Dynamic Range Meter 1.1.1
log date: 2016-11-19 19:59:09

--------------------------------------------------------------------------------
Analyzed: Area / Arbeit Macht Frei (Il Lavoro Rende Liberi)
--------------------------------------------------------------------------------

DR Peak RMS Duration Track
--------------------------------------------------------------------------------
DR12 -0.20 dB -14.13 dB 4:28 01-Luglio, Agosto, Settembre (Nero)
DR10 -0.20 dB -12.65 dB 8:01 02-Arbeit Macht Frei
DR10 -0.20 dB -12.45 dB 6:10 03-Consapevolezza
DR10 -0.20 dB -13.35 dB 6:04 04-Le Labbra Del Tempo
DR9 -0.20 dB -11.65 dB 5:16 05-240 Chilometri Da Smirne
DR11 -0.20 dB -15.52 dB 6:54 06-L'abbattimento Dello Zeppelin
--------------------------------------------------------------------------------

Number of tracks: 6
Official DR value: DR10

Samplerate: 44100 Hz
Channels: 2
Bits per sample: 16
Bitrate: 940 kbps
Codec: WavPack
================================================== ==============================

первый известный мне пример тупомастеринга "для CD" - все кирпичи квадратные, все пики - одинаковые, -0.20 dB. просто кю
альбом 1973 года, издание на CD - первопресс 1989; мог быть и более вменяемым, но

Последний раз редактировалось pqsyerg; 19.11.2016 в 23:31.
pqsyerg вне форума   Ответить с цитированием
Пользователь сказал cпасибо:
glot39 (19.11.2016)
Старый 07.12.2017, 15:05   #3
getsneg
Активный
 

Регистрация: 25.06.2016
Сообщений: 9
Сказал(а) спасибо: 14
Поблагодарили 3 раз(а) в 3 сообщениях
getsneg на пути к лучшему
По умолчанию

релизер-то с юмором - "приходят стремно одетые чуваки" ))) а иногда (бывает) и вовсе приходит "Козел на Саксе" ! ))) и вот тогда начинается Музыка. Безсмертная. иногда ее называют "Арсенал", иногда - еще и "Аракс". Шнур(ик) может тихонько в углу что-то пососать (или - полизать)
getsneg вне форума   Ответить с цитированием
Ответ

Закладки

Опции темы
Опции просмотра

Ваши права в разделе
Вы не можете создавать новые темы
Вы не можете отвечать в темах
Вы не можете прикреплять вложения
Вы не можете редактировать свои сообщения

BB коды Вкл.
Смайлы Вкл.
[IMG] код Вкл.
HTML код Выкл.

Быстрый переход


Часовой пояс GMT +3, время: 17:36.


Powered by vBulletin® Version 3.8.2
Copyright ©2000 - 2024, Jelsoft Enterprises Ltd. Перевод: zCarot
Rambler's Top100 Республика Татарстан - Каталог сайтов