Все Тут Online
Все Тут Online
Новые сообщения
Все сообщения за последних 24 часа
Все сообщения за последнюю неделю
Расширенный Поиск

   
Меню сайта:
Главная
Форум
Чат
- Online приложения:
- Игры
- Выбор стиля:
- FAQ
- Для начинающих

Вернуться   Все Тут Online > CD (Компакт диски) Lossless и ПОТОКОВОЕ АУДИО (включая HI-RES) - МУЗЫКА БЕЗ ПОТЕРИ КАЧЕСТВА > ШАНСОН, АВТОРСКАЯ и ВОЕННАЯ ПЕСНЯ (Lossless) > Отечественный шансон (lossless)

Старый 23.01.2010, 12:41   #1
Tomas
вечная память
 
Аватар для Tomas
 

Регистрация: 19.11.2008
Адрес: СССР
Сообщений: 8,568
Сказал(а) спасибо: 1,496
Поблагодарили 6,413 раз(а) в 2,129 сообщениях
Tomas репутация неоспоримаTomas репутация неоспоримаTomas репутация неоспоримаTomas репутация неоспоримаTomas репутация неоспоримаTomas репутация неоспоримаTomas репутация неоспоримаTomas репутация неоспоримаTomas репутация неоспоримаTomas репутация неоспоримаTomas репутация неоспорима
По умолчанию Саша Сирень - Девочка в стиле шансон 2005 (Lossless)



Страна: Россия
Жанр: Шансон
Год выпуска: 2005
Формат: FLAC (image + .cue)
Битрейт аудио: lossless
Трэклист:

01.Девочка в стиле шансон
02.Некоронованный король
03.Я добьюсь
04.Падабапа
05.Скажи мне мама
06.Бухара
07.Его нельзя не любить
08.Твой отце профессор
09.Шарфик сиреневый
10.Скрипка
11.Это он
12.Люди говорят (Дойна)
Бонус треки:
13.Просто помечтаем
14.Мисс ЗК

Добавлена опция для восстановления 3%
EAC, FLAC, CUE


Ссылка:

Скрытый текст (вы должны зарегистрироваться или войти под своим логином):
У вас нет прав чтобы видеть скрытый текст, содержащейся здесь.


Цитата:
Exact Audio Copy V0.99 prebeta 5 from 4. May 2009

Отчёт EAC об извлечении, выполненном 23. января 2010, 11:15

Саша Сирень / Зажигалка

Дисковод: TSSTcorpCDDVDW SH-S223F Adapter: 2 ID: 0

Режим чтения : Достоверность
Использование точного потока : Да
Отключение кэша аудио : Да
Использование указателей C2 : Нет

Коррекция смещения при чтении : 6
Способность читать области Lead-in и Lead-out : Нет
Заполнение пропущенных сэмплов тишиной : Да
Удаление блоков с тишиной в начале и конце : Нет
При вычислениях CRC использовались нулевые сэмплы : Да
Интерфейс : Встроенный Win32-интерфейс для Win NT/2000

Выходной формат : Внутренние WAV-операции
Формат сэмплов : 44.100 Гц; 16 бит; стерео


TOC извлечённого CD

Трек | Старт | Длительность | Начальный сектор | Конечный сектор
---------------------------------------------------------------------
1 | 0:00.00 | 3:01.36 | 0 | 13610
2 | 3:01.36 | 4:52.28 | 13611 | 35538
3 | 7:53.64 | 3:33.22 | 35539 | 51535
4 | 11:27.11 | 2:40.47 | 51536 | 63582
5 | 14:07.58 | 3:59.48 | 63583 | 81555
6 | 18:07.31 | 2:55.73 | 81556 | 94753
7 | 21:03.29 | 2:46.08 | 94754 | 107211
8 | 23:49.37 | 3:38.65 | 107212 | 123626
9 | 27:28.27 | 2:29.62 | 123627 | 134863
10 | 29:58.14 | 4:29.67 | 134864 | 155105
11 | 34:28.06 | 3:52.48 | 155106 | 172553
12 | 40:52.54 | 9:01.00 | 183954 | 224528


Характеристики диапазона извлечения и сообщения об ошибках

Выбранный диапазон

Имя файла C:\Documents and Settings\Vladimir\Рабочий стол\Саша Сирень - Зажигалка\Саша Сирень - Зажигалка.wav

Пиковый уровень 98.8 %
Качество диапазона 100.0 %
CRC копии 4CE31975
Копирование... OK

Ошибок не произошло

Конец отчёта

Последний раз редактировалось vlf; 29.01.2010 в 20:26.
Tomas вне форума   Ответить с цитированием
5 пользователя(ей) сказали cпасибо:
валерий55 (25.11.2018), вап (26.12.2017), Бархан (12.05.2018), Korvet (08.05.2011), zitrus (19.01.2016)
Старый 30.05.2020, 19:01   #2
Дмитрий
Администратор
 
Аватар для Дмитрий
 
Турниров выиграно: 1

Регистрация: 12.12.2008
Адрес: Москва прошлого тысячелетия.
Сообщений: 195,189
Сказал(а) спасибо: 37,456
Поблагодарили 205,009 раз(а) в 75,788 сообщениях
Дмитрий репутация неоспоримаДмитрий репутация неоспоримаДмитрий репутация неоспоримаДмитрий репутация неоспоримаДмитрий репутация неоспоримаДмитрий репутация неоспоримаДмитрий репутация неоспоримаДмитрий репутация неоспоримаДмитрий репутация неоспоримаДмитрий репутация неоспоримаДмитрий репутация неоспорима
По умолчанию

++
Дмитрий вне форума   Ответить с цитированием
Ответ

Закладки

Метки
альбом, бесплатно, зажигалка, cue, flac, lossless, megaupload, саша сирень, скачать, шансон

Опции темы
Опции просмотра

Ваши права в разделе
Вы не можете создавать новые темы
Вы не можете отвечать в темах
Вы не можете прикреплять вложения
Вы не можете редактировать свои сообщения

BB коды Вкл.
Смайлы Вкл.
[IMG] код Вкл.
HTML код Выкл.

Быстрый переход


Часовой пояс GMT +3, время: 10:07.


Powered by vBulletin® Version 3.8.2
Copyright ©2000 - 2022, Jelsoft Enterprises Ltd. Перевод: zCarot
Rambler's Top100 Республика Татарстан - Каталог сайтов