Все Тут Online
Все Тут Online
Новые сообщения
Все сообщения за последних 24 часа
Все сообщения за последнюю неделю
Расширенный Поиск

   
Меню сайта:
Главная
Форум
Чат
- Online приложения:
- Игры
- Выбор стиля:
- FAQ
- Для начинающих

Вернуться   Все Тут Online > Оцифровки ВИНИЛА пользователей нашего форума > Оцифровки от Горловчан

Старый 07.03.2016, 23:53   #1
горнячок
Активный
 
Аватар для горнячок
 

Регистрация: 05.06.2010
Адрес: Горловка
Сообщений: 545
Сказал(а) спасибо: 443
Поблагодарили 1,580 раз(а) в 367 сообщениях
горнячок репутация неоспоримагорнячок репутация неоспоримагорнячок репутация неоспоримагорнячок репутация неоспоримагорнячок репутация неоспоримагорнячок репутация неоспоримагорнячок репутация неоспоримагорнячок репутация неоспоримагорнячок репутация неоспоримагорнячок репутация неоспоримагорнячок репутация неоспорима
Отправить сообщение для горнячок с помощью Skype™
По умолчанию Аля Юно - Songs of a Russian Gypsy



Исполнитель: Аля Юнаковская
Альбом: Songs of russiangypsy alya
Год выпуска: Архивные записи 1967г ?
Жанр: Разный
Качество звука: wav
Размер: 360 мб

Не резан

01 Льётся песня
02 Колечко
03 Что мне горе
04 Только раз бывают в жизни встречи....
05 Как странно
06 Две гитары
07 Твои глаза зелёные
08 Эх,дороги...
09 Светит месяц
10 Вернись
11 Фанарики
12 До свиданья
13 Бирюзовые колечки
14 Две слезинки

Скрытый текст (вы должны зарегистрироваться или войти под своим логином):
У вас нет прав чтобы видеть скрытый текст, содержащейся здесь.
горнячок вне форума   Ответить с цитированием
21 пользователя(ей) сказали cпасибо:
Д.Исакович (08.03.2016), Евгений 85 (27.08.2023), васил (08.03.2016), Владимир 1733 (08.03.2016), Александр-4937 (20.12.2023), аист (08.03.2016), Дмитрий (17.03.2016), искатель (09.03.2016), fip52 (09.03.2016), Goh78 (08.05.2016), олег1953 (10.03.2016), мирфед (08.03.2016), kopilovoleg (08.03.2016), Luckascans (19.12.2023), msv613 (11.02.2024), qwer-70 (18.06.2016), SergeL (19.12.2023), user369553 (31.01.2021), volkou (01.09.2017), Эдуард 66 (19.12.2023)
Старый 08.03.2016, 00:12   #2
Дмитрий
Администратор
 
Аватар для Дмитрий
 
Турниров выиграно: 1

Регистрация: 12.12.2008
Адрес: Москва прошлого тысячелетия.
Сообщений: 230,614
Сказал(а) спасибо: 42,790
Поблагодарили 255,699 раз(а) в 94,748 сообщениях
Дмитрий репутация неоспоримаДмитрий репутация неоспоримаДмитрий репутация неоспоримаДмитрий репутация неоспоримаДмитрий репутация неоспоримаДмитрий репутация неоспоримаДмитрий репутация неоспоримаДмитрий репутация неоспоримаДмитрий репутация неоспоримаДмитрий репутация неоспоримаДмитрий репутация неоспорима
По умолчанию

горнячок, спасибо огромное!
Давно искал
__________________
О нас думают плохо лишь те, кто хуже нас. А те, кто лучше нас, им просто не до нас.
--Омар Хайям

Обновления по запросу — на Я.Ди. «Мэйл-облако» для тех, кто помогает нашему интернет-проекту, и для тех, кто хотел бы это делать, но пока не знает, как.

Помогая форуму ВТО, вы прежде всего помогаете себе! А не делаете что-то абстрактное для «других», совершенно незнакомых и безразличных вам людей.
Дмитрий вне форума   Ответить с цитированием
Старый 08.03.2016, 00:43   #3
Дмитрий
Администратор
 
Аватар для Дмитрий
 
Турниров выиграно: 1

Регистрация: 12.12.2008
Адрес: Москва прошлого тысячелетия.
Сообщений: 230,614
Сказал(а) спасибо: 42,790
Поблагодарили 255,699 раз(а) в 94,748 сообщениях
Дмитрий репутация неоспоримаДмитрий репутация неоспоримаДмитрий репутация неоспоримаДмитрий репутация неоспоримаДмитрий репутация неоспоримаДмитрий репутация неоспоримаДмитрий репутация неоспоримаДмитрий репутация неоспоримаДмитрий репутация неоспоримаДмитрий репутация неоспоримаДмитрий репутация неоспорима
По умолчанию

На треки обязательно пластинки порежу, Саша
Я с планшета.. несподручно

Скачать-то скачал и вывел на большие колонки
__________________
О нас думают плохо лишь те, кто хуже нас. А те, кто лучше нас, им просто не до нас.
--Омар Хайям

Обновления по запросу — на Я.Ди. «Мэйл-облако» для тех, кто помогает нашему интернет-проекту, и для тех, кто хотел бы это делать, но пока не знает, как.

Помогая форуму ВТО, вы прежде всего помогаете себе! А не делаете что-то абстрактное для «других», совершенно незнакомых и безразличных вам людей.
Дмитрий вне форума   Ответить с цитированием
Старый 08.03.2016, 06:58   #4
мирфед
Активный
 
Аватар для мирфед
 

Регистрация: 11.06.2011
Адрес: Россия Тюмень
Сообщений: 1,593
Сказал(а) спасибо: 312
Поблагодарили 3,910 раз(а) в 802 сообщениях
мирфед репутация неоспоримамирфед репутация неоспоримамирфед репутация неоспоримамирфед репутация неоспоримамирфед репутация неоспоримамирфед репутация неоспоримамирфед репутация неоспоримамирфед репутация неоспоримамирфед репутация неоспоримамирфед репутация неоспоримамирфед репутация неоспорима
По умолчанию

Дмитрий , я уже порезал,горнячок ,спасибо за Юнаковскую.

Код HTML:
REM GENRE фольк.
REM DATE 1967
REM "Оцифровка - "горнячок" 
PERFORMER "Аля Юнаковская"
TITLE "Songs of russiangypsy alya"
FILE "Songs of russiangypsy alya.WAV" WAVE
  TRACK 01 AUDIO
    TITLE "Льётся песня"
    INDEX 01 00:00:00
  TRACK 02 AUDIO
    TITLE "Колечко"
    INDEX 01 02:10:74
  TRACK 03 AUDIO
    TITLE "Что мне горе"
    INDEX 01 04:57:27
  TRACK 04 AUDIO
    TITLE "Только раз "
    INDEX 01 06:44:72
  TRACK 05 AUDIO
    TITLE "Как странно"
    INDEX 01 08:57:71
  TRACK 06 AUDIO
    TITLE "Две гитары"
    INDEX 01 10:57:60
  TRACK 07 AUDIO
    TITLE "Твои глаза зелёные"
    INDEX 01 13:29:24
  TRACK 08 AUDIO
    TITLE "Эх,дороги..."
    INDEX 01 16:38:32
  TRACK 09 AUDIO
    TITLE "Светит месяц"
    INDEX 01 19:21:45
  TRACK 10 AUDIO
    TITLE "Вернись"
    INDEX 01 21:28:61
  TRACK 11 AUDIO
    TITLE "Фанарики"
    INDEX 01 24:12:71
  TRACK 12 AUDIO
    TITLE "До свиданья"
    INDEX 01 26:17:39
  TRACK 13 AUDIO
    TITLE "Бирюзовые колечки"
    INDEX 01 28:30:15
  TRACK 14 AUDIO
    TITLE "Две слезинки"
    INDEX 01 30:14:19
мирфед вне форума   Ответить с цитированием
4 пользователя(ей) сказали cпасибо:
Дмитрий (08.03.2016), горнячок (08.03.2016), искатель (09.03.2016)
Старый 08.03.2016, 10:02   #5
ser28062
Заблокирован
 

Регистрация: 26.10.2015
Сообщений: 26
Сказал(а) спасибо: 0
Поблагодарили 26 раз(а) в 14 сообщениях
ser28062 скоро придёт к известностиser28062 скоро придёт к известности
По умолчанию

ser28062 вне форума   Ответить с цитированием
3 пользователя(ей) сказали cпасибо:
аист (08.03.2016), Дмитрий (08.03.2016), искатель (09.03.2016)
Старый 08.03.2016, 10:39   #6
Дмитрий
Администратор
 
Аватар для Дмитрий
 
Турниров выиграно: 1

Регистрация: 12.12.2008
Адрес: Москва прошлого тысячелетия.
Сообщений: 230,614
Сказал(а) спасибо: 42,790
Поблагодарили 255,699 раз(а) в 94,748 сообщениях
Дмитрий репутация неоспоримаДмитрий репутация неоспоримаДмитрий репутация неоспоримаДмитрий репутация неоспоримаДмитрий репутация неоспоримаДмитрий репутация неоспоримаДмитрий репутация неоспоримаДмитрий репутация неоспоримаДмитрий репутация неоспоримаДмитрий репутация неоспоримаДмитрий репутация неоспорима
По умолчанию

Спасибо!
__________________
О нас думают плохо лишь те, кто хуже нас. А те, кто лучше нас, им просто не до нас.
--Омар Хайям

Обновления по запросу — на Я.Ди. «Мэйл-облако» для тех, кто помогает нашему интернет-проекту, и для тех, кто хотел бы это делать, но пока не знает, как.

Помогая форуму ВТО, вы прежде всего помогаете себе! А не делаете что-то абстрактное для «других», совершенно незнакомых и безразличных вам людей.
Дмитрий вне форума   Ответить с цитированием
Старый 19.12.2023, 21:24   #7
Luckascans
Активный
 
Аватар для Luckascans
 

Регистрация: 22.11.2023
Сообщений: 15
Сказал(а) спасибо: 211
Поблагодарили 1 раз в 1 сообщении
Luckascans на пути к лучшему
По умолчанию

горнячок, огромное спасибо за wav!
Luckascans вне форума   Ответить с цитированием
Ответ

Закладки

Опции темы
Опции просмотра

Ваши права в разделе
Вы не можете создавать новые темы
Вы не можете отвечать в темах
Вы не можете прикреплять вложения
Вы не можете редактировать свои сообщения

BB коды Вкл.
Смайлы Вкл.
[IMG] код Вкл.
HTML код Выкл.

Быстрый переход


Часовой пояс GMT +3, время: 07:02.


Powered by vBulletin® Version 3.8.2
Copyright ©2000 - 2024, Jelsoft Enterprises Ltd. Перевод: zCarot
Rambler's Top100 Республика Татарстан - Каталог сайтов