Все Тут Online
Все Тут Online
Новые сообщения
Все сообщения за последних 24 часа
Все сообщения за последнюю неделю
Расширенный Поиск

   
Меню сайта:
Главная
Форум
Чат
- Online приложения:
- Игры
- Выбор стиля:
- FAQ
- Для начинающих

Вернуться   Все Тут Online > ОЦИФРОВКИ ВИНИЛА (Lossless) > Оцифровки ВИНИЛА пользователей нашего форума > Оцифровки Борис 63 (Technics SL-1200 MK3D // Victor QL-A7 [Audio-Technica AT440MLa] => Accuphase 200

Старый 07.07.2015, 15:11   #1
Борис 63
Команда
 
Аватар для Борис 63
 

Регистрация: 01.02.2010
Адрес: СССР Москва
Сообщений: 15,812
Сказал(а) спасибо: 9,061
Поблагодарили 53,860 раз(а) в 8,659 сообщениях
Борис 63 репутация неоспоримаБорис 63 репутация неоспоримаБорис 63 репутация неоспоримаБорис 63 репутация неоспоримаБорис 63 репутация неоспоримаБорис 63 репутация неоспоримаБорис 63 репутация неоспоримаБорис 63 репутация неоспоримаБорис 63 репутация неоспоримаБорис 63 репутация неоспоримаБорис 63 репутация неоспорима
По умолчанию (24/96) AMANDA LEAR -Never Trust A Pretty Face-(lossless)
















Оцифровка с пластинки

Вертушка - на фото

Фонокорректор - самодельный ламповый

Головка звукоснимателя - JVC - Z1S


1 сторона

Скрытый текст (вы должны зарегистрироваться или войти под своим логином):
У вас нет прав чтобы видеть скрытый текст, содержащейся здесь.


2 сторона

Скрытый текст (вы должны зарегистрироваться или войти под своим логином):
У вас нет прав чтобы видеть скрытый текст, содержащейся здесь.
__________________
Ccылка на тему: Как скачивать с Яндекс диска!

Чтобы быстро скачать чужой опубликованный файл, сохраните его на свой Диск. На вашем Диске файл окажется мгновенно, а свои файлы вы всегда можете скачать без ограничений.
Борис 63 вне форума   Ответить с цитированием
22 пользователя(ей) сказали cпасибо:
Д.Исакович (07.07.2015), Евгений80 (07.07.2015), ГеннадийС161 (02.12.2015), ВасяВасяВася (10.01.2021), Александр4937 (19.09.2020), Андрей В. (29.02.2020), Дмитрий (20.08.2015), cthutq_1956 (28.02.2017), DeD (07.07.2015), FFil (04.03.2020), kopilovoleg (07.07.2015), lyoliku (23.09.2017), Серёга_81 (07.07.2015), Синдикат (07.07.2015), orlov2006vn (26.01.2017), suede69 (27.06.2017), Tori (07.07.2015), unreal2304 (11.05.2021), vcr (16.10.2020), Worldly-wise (08.07.2015), zhu (07.07.2015)
Старый 07.07.2015, 15:16   #2
Синдикат
Активный
 
Аватар для Синдикат
 

Регистрация: 15.08.2012
Адрес: Житель вселенной
Сообщений: 9,088
Сказал(а) спасибо: 7,781
Поблагодарили 11,130 раз(а) в 5,236 сообщениях
Синдикат репутация неоспоримаСиндикат репутация неоспоримаСиндикат репутация неоспоримаСиндикат репутация неоспоримаСиндикат репутация неоспоримаСиндикат репутация неоспоримаСиндикат репутация неоспоримаСиндикат репутация неоспоримаСиндикат репутация неоспоримаСиндикат репутация неоспоримаСиндикат репутация неоспорима
По умолчанию

Борис, спасибо альбом называется Не доверяй незнакомому лицу.

Класный.
__________________
Ccылка на тему: Как скачивать с Яндекс диска!

Чтобы быстро скачать чужой опубликованный файл, сохраните его на свой Диск. На вашем Диске файл окажется мгновенно, а свои файлы вы всегда можете скачать без ограничений.

Кто владеет и управляет прошлым , тот владеет настоящим и будущим.

Синдикат вне форума   Ответить с цитированием
Старый 07.07.2015, 15:27   #3
Борис 63
Команда
 
Аватар для Борис 63
 

Регистрация: 01.02.2010
Адрес: СССР Москва
Сообщений: 15,812
Сказал(а) спасибо: 9,061
Поблагодарили 53,860 раз(а) в 8,659 сообщениях
Борис 63 репутация неоспоримаБорис 63 репутация неоспоримаБорис 63 репутация неоспоримаБорис 63 репутация неоспоримаБорис 63 репутация неоспоримаБорис 63 репутация неоспоримаБорис 63 репутация неоспоримаБорис 63 репутация неоспоримаБорис 63 репутация неоспоримаБорис 63 репутация неоспоримаБорис 63 репутация неоспорима
По умолчанию

Синдикат, Да - для меня это её лучший альбом, и записан он очень хорошо.

Приятного прослушивания!
__________________
Ccылка на тему: Как скачивать с Яндекс диска!

Чтобы быстро скачать чужой опубликованный файл, сохраните его на свой Диск. На вашем Диске файл окажется мгновенно, а свои файлы вы всегда можете скачать без ограничений.
Борис 63 вне форума   Ответить с цитированием
2 пользователя(ей) сказали cпасибо:
Евгений80 (07.07.2015), Синдикат (07.07.2015)
Старый 07.07.2015, 17:24   #4
zhu
Активный
 

Регистрация: 12.06.2015
Сообщений: 43
Сказал(а) спасибо: 34
Поблагодарили 35 раз(а) в 6 сообщениях
zhu - весьма и весьма положительная личностьzhu - весьма и весьма положительная личность
По умолчанию

Синдикат, почему незнакомому? - Прекрасному, красивому. - Никогда не доверяй красивому (смазливому) лицу.

Последний раз редактировалось zhu; 08.07.2015 в 00:01.
zhu вне форума   Ответить с цитированием
Пользователь сказал cпасибо:
Евгений80 (08.07.2015)
Старый 07.07.2015, 20:42   #5
Серёга_81
Активный
 

Регистрация: 06.09.2013
Адрес: г.Москва
Сообщений: 333
Сказал(а) спасибо: 414
Поблагодарили 916 раз(а) в 147 сообщениях
Серёга_81 репутация неоспоримаСерёга_81 репутация неоспоримаСерёга_81 репутация неоспоримаСерёга_81 репутация неоспоримаСерёга_81 репутация неоспоримаСерёга_81 репутация неоспоримаСерёга_81 репутация неоспоримаСерёга_81 репутация неоспоримаСерёга_81 репутация неоспоримаСерёга_81 репутация неоспоримаСерёга_81 репутация неоспорима
По умолчанию

Борис 63, Спасибо большое!

CUE:
Код:
REM GENRE "Disco"
REM DATE 1979
REM COMMENT "Оцифровка - Борис 63"
TITLE  "Never Trust A Pretty Face"
PERFORMER " Amanda Lear"
FILE "1 .flac" WAVE
  TRACK 01 AUDIO
    TITLE "Fashion Pack"
    PERFORMER "Amanda Lear"
    INDEX 01 00:01:17
  TRACK 02 AUDIO
    TITLE "Forget It"
    PERFORMER "Amanda Lear"
    INDEX 01 05:12:03
  TRACK 03 AUDIO
    TITLE "Lili Marleen"
    PERFORMER "Amanda Lear"
    INDEX 01 09:29:34
  TRACK 04 AUDIO
    TITLE "Never Trust A Pretty Face"
    PERFORMER "Amanda Lear"
    INDEX 01 14:17:44
FILE "2 .flac" WAVE
   TRACK 05 AUDIO
    TITLE "The Sphinx"
    PERFORMER "Amanda Lear"
    INDEX 01 00:02:60
  TRACK 06 AUDIO
    TITLE "Black Holes"
    PERFORMER "Amanda Lear"
    INDEX 01 04:28:33
  TRACK 07 AUDIO
    TITLE "Intellectually"
    PERFORMER "Amanda Lear"
    INDEX 01 09:36:06
  TRACK 08 AUDIO
    TITLE "Miroir"
    PERFORMER "Amanda Lear"
    INDEX 01 13:56:21
  TRACK 09 AUDIO
    TITLE "Dreamer (South Pacific)"
    PERFORMER "Amanda Lear"
    INDEX 01 15:57:31
Серёга_81 вне форума   Ответить с цитированием
6 пользователя(ей) сказали cпасибо:
Евгений80 (08.07.2015), Александр4937 (19.09.2020), Борис 63 (07.07.2015), ewt43 (29.02.2020), suede69 (27.06.2017), zhu (08.07.2015)
Старый 29.02.2020, 18:22   #6
ewt43
Активный
 

Регистрация: 09.02.2015
Сообщений: 2
Сказал(а) спасибо: 23
Поблагодарили 0 раз(а) в 0 сообщениях
ewt43 на пути к лучшему
По умолчанию

Спасибо за труд!!! Не могли бы Вы выложить коврики с пятаками?Еще раз примите мою благодарность!!!
ewt43 вне форума   Ответить с цитированием
Старый 19.09.2020, 21:20   #7
phi
VIP
 

Регистрация: 18.04.2017
Сообщений: 66
Сказал(а) спасибо: 165
Поблагодарили 54 раз(а) в 42 сообщениях
phi как роза среди колючекphi как роза среди колючекphi как роза среди колючек
По умолчанию

Борис, спасибо Вам за Ваш труд! Один из ее сильнейших альбомов в великолепном качестве!
phi вне форума   Ответить с цитированием
Пользователь сказал cпасибо:
Борис 63 (19.09.2020)
Ответ

Закладки

Опции темы
Опции просмотра

Ваши права в разделе
Вы не можете создавать новые темы
Вы не можете отвечать в темах
Вы не можете прикреплять вложения
Вы не можете редактировать свои сообщения

BB коды Вкл.
Смайлы Вкл.
[IMG] код Вкл.
HTML код Выкл.

Быстрый переход


Часовой пояс GMT +3, время: 02:03.


Powered by vBulletin® Version 3.8.2
Copyright ©2000 - 2022, Jelsoft Enterprises Ltd. Перевод: zCarot
Rambler's Top100 Республика Татарстан - Каталог сайтов