Все Тут Online
Все Тут Online
Новые сообщения
Все сообщения за последних 24 часа
Все сообщения за последнюю неделю
Расширенный Поиск

   
Меню сайта:
Главная
Форум
Чат
- Online приложения:
- Игры
- Выбор стиля:
- FAQ
- Для начинающих

Вернуться   Все Тут Online > CD (Компакт диски) Lossless и ПОТОКОВОЕ АУДИО - МУЗЫКА БЕЗ ПОТЕРИ КАЧЕСТВА > ПОП МУЗЫКА, Eurodance, Disco (Lossless) > Отечественная Поп музыка (lossless)

Старый 31.03.2024, 07:56   #1
Дмитрий
Администратор
 
Аватар для Дмитрий
 
Турниров выиграно: 1

Регистрация: 12.12.2008
Адрес: Москва прошлого тысячелетия.
Сообщений: 232,485
Сказал(а) спасибо: 43,084
Поблагодарили 257,134 раз(а) в 95,385 сообщениях
Дмитрий репутация неоспоримаДмитрий репутация неоспоримаДмитрий репутация неоспоримаДмитрий репутация неоспоримаДмитрий репутация неоспоримаДмитрий репутация неоспоримаДмитрий репутация неоспоримаДмитрий репутация неоспоримаДмитрий репутация неоспоримаДмитрий репутация неоспоримаДмитрий репутация неоспорима
По умолчанию Вадим Латыпов и группа Дорогое удовольствие - Тетя Нюра WAV 24.192

https://www.vsetutonline.com/forum/s...d.php?t=262118
https://disk.yandex.ru/d/FhPli8ozKiUypA

__________________
О нас думают плохо лишь те, кто хуже нас. А те, кто лучше нас, им просто не до нас.
--Омар Хайям

Обновления по запросу — на Я.Ди. «Мэйл-облако» для тех, кто помогает нашему интернет-проекту, и для тех, кто хотел бы это делать, но пока не знает, как.

Помогая форуму ВТО, вы прежде всего помогаете себе! А не делаете что-то абстрактное для «других», совершенно незнакомых и безразличных вам людей.
Дмитрий вне форума   Ответить с цитированием
7 пользователя(ей) сказали cпасибо:
Disco Maniac (31.03.2024), Крепыш (31.03.2024), orientir (01.04.2024), uriyburov (01.04.2024), ViktorSt56 (01.04.2024), Эдуард 66 (31.03.2024), zitrus (31.03.2024)
Старый 31.03.2024, 16:04   #2
zitrus
VIP
 
Аватар для zitrus
 

Регистрация: 16.02.2010
Адрес: Москва
Сообщений: 770
Сказал(а) спасибо: 5,988
Поблагодарили 1,585 раз(а) в 464 сообщениях
zitrus репутация неоспоримаzitrus репутация неоспоримаzitrus репутация неоспоримаzitrus репутация неоспоримаzitrus репутация неоспоримаzitrus репутация неоспоримаzitrus репутация неоспоримаzitrus репутация неоспоримаzitrus репутация неоспоримаzitrus репутация неоспоримаzitrus репутация неоспорима
По умолчанию

cue:
REM POP
REM DATE 1992
PERFORMER "Вадим Латыпов и группа Дорогое удовольствие"
TITLE "Первый магнитоальбом"
FILE "Вадим Латыпов и группа Дорогое удовольствие - Первый магнитоальбом - 1992.WAV" WAVE
TRACK 01 AUDIO
TITLE "Вступление + Тётя Нюра"
PERFORMER "Вадим Латыпов и группа Дорогое удовольствие"
INDEX 01 00:00:00
TRACK 02 AUDIO
TITLE "Опять в Чикаго ночь"
PERFORMER "Вадим Латыпов и группа Дорогое удовольствие"
INDEX 01 06:18:86
TRACK 03 AUDIO
TITLE "Таня"
PERFORMER "Вадим Латыпов и группа Дорогое удовольствие"
INDEX 01 10:11:77
TRACK 04 AUDIO
TITLE "Ловушка для мужчин"
PERFORMER "Вадим Латыпов и группа Дорогое удовольствие"
INDEX 01 14:55:86
TRACK 05 AUDIO
TITLE "Фатима"
PERFORMER "Вадим Латыпов и группа Дорогое удовольствие"
INDEX 01 17:51:85
TRACK 06 AUDIO
TITLE "Не трогай меня, мама"
PERFORMER "Вадим Латыпов и группа Дорогое удовольствие"
INDEX 01 23:25:36
TRACK 07 AUDIO
TITLE "Муса Ибрагим"
PERFORMER "Вадим Латыпов и группа Дорогое удовольствие"
INDEX 01 26:17:99
zitrus вне форума   Ответить с цитированием
2 пользователя(ей) сказали cпасибо:
Дмитрий (31.03.2024), Крепыш (31.03.2024)
Старый 01.04.2024, 00:04   #3
Дмитрий
Администратор
 
Аватар для Дмитрий
 
Турниров выиграно: 1

Регистрация: 12.12.2008
Адрес: Москва прошлого тысячелетия.
Сообщений: 232,485
Сказал(а) спасибо: 43,084
Поблагодарили 257,134 раз(а) в 95,385 сообщениях
Дмитрий репутация неоспоримаДмитрий репутация неоспоримаДмитрий репутация неоспоримаДмитрий репутация неоспоримаДмитрий репутация неоспоримаДмитрий репутация неоспоримаДмитрий репутация неоспоримаДмитрий репутация неоспоримаДмитрий репутация неоспоримаДмитрий репутация неоспоримаДмитрий репутация неоспорима
По умолчанию

cue: https://disk.yandex.ru/d/MXMOX4pgI31Rzg
__________________
О нас думают плохо лишь те, кто хуже нас. А те, кто лучше нас, им просто не до нас.
--Омар Хайям

Обновления по запросу — на Я.Ди. «Мэйл-облако» для тех, кто помогает нашему интернет-проекту, и для тех, кто хотел бы это делать, но пока не знает, как.

Помогая форуму ВТО, вы прежде всего помогаете себе! А не делаете что-то абстрактное для «других», совершенно незнакомых и безразличных вам людей.
Дмитрий вне форума   Ответить с цитированием
Пользователь сказал cпасибо:
Эдуард 66 (01.04.2024)
Ответ

Закладки

Опции темы
Опции просмотра

Ваши права в разделе
Вы не можете создавать новые темы
Вы не можете отвечать в темах
Вы не можете прикреплять вложения
Вы не можете редактировать свои сообщения

BB коды Вкл.
Смайлы Вкл.
[IMG] код Вкл.
HTML код Выкл.

Быстрый переход


Часовой пояс GMT +3, время: 04:31.


Powered by vBulletin® Version 3.8.2
Copyright ©2000 - 2024, Jelsoft Enterprises Ltd. Перевод: zCarot
Rambler's Top100 Республика Татарстан - Каталог сайтов