Все Тут Online

Все Тут Online (https://vsetutonline.com/forum/index.php)
-   Зарубежный Rock (lossless) (https://vsetutonline.com/forum/forumdisplay.php?f=503)
-   -   Pink Floyd - Wish You Were Here (1975) (MB Lenta 38) (https://vsetutonline.com/forum/showthread.php?t=163359)

Дмитрий 17.12.2020 06:49

Pink Floyd - Wish You Were Here (1975) (MB Lenta 38)
 
Скрытый текст (вы должны зарегистрироваться или войти под своим логином):
У вас нет прав чтобы видеть скрытый текст, содержащейся здесь.

DeD 17.12.2020 10:20

спасибо. услышал этот альбом по другому.

ТОМ 17.12.2020 12:26

Вот это МЕГА!!!! СУПЕР!!!! Рекомендую! Вот прям ЗЕЛО рекомендую... Дима, а еще пинки с флоидами от этого же человека есть??? Я вот сейчас посмотрю, что у меня есть, но скорее всего, буду менять...

Дмитрий 17.12.2020 12:29

ТОМ, это у меня от Андрея из Германии
Скорей всего NoNaMe Club оцифровки

Дмитрий 17.12.2020 12:32

Analyzed: PINK FLOYD / WISH YOU WERE HERE

--------------------------------------------------------------------------------

DR Peak RMS Duration Track

--------------------------------------------------------------------------------

DR14 -1.35 dB -18.53 dB 13:42 01-Shine On You Crazy Diamond (Parts I-V)

DR10 -1.31 dB -15.56 dB 7:25 02-Welcome to the Machine

DR12 -0.94 dB -15.54 dB 5:29 03-Have a Cigar

DR13 -0.82 dB -17.50 dB 5:32 04-Wish You Were Here

DR12 -1.25 dB -16.59 dB 12:43 05-Shine On You Crazy Diamond (Parts VI-IX)

--------------------------------------------------------------------------------

Number of tracks: 5

Official DR value: DR12

Samplerate: 192000 Hz

Channels: 2

Bits per sample: 24

Bitrate: 4937 kbps

Codec: FLAC


https://www.upload.ee/image/12651845...3f78a249ab.png

Дмитрий 17.12.2020 12:37

наверно надо в клубный положить было, к магнитиздату, выборочно и еще есть парочка ТБ винил не мирумировский

Дмитрий 17.12.2020 12:40

Обложки и треклисты, в принципе все видно при нажатии на ссылку, оформлять километровыми темами времени нет.

ТОМ 17.12.2020 12:48

Просто МЕГАзвук! там столько разных инструментов, которых раньше вообще не слышно было... Сейчас Славину оцифровку скачаю, сравню (как-то я ее упустил, даже спасибо не сказал и не слушал, поганец...

ТОМ 17.12.2020 12:49

Цитата:

Сообщение от Дмитрий (Сообщение 592567)
ТОМ, это у меня от Андрея из Германии
Скорей всего NoNaMe Club оцифровки

Вот это мегатехника! Какой звук!

Дмитрий 17.12.2020 13:02

ТОМ, не хотят расширять диски и заливать вот не буду.
Как хорошо отдохну хоть
Аппаратурой займусь


Часовой пояс GMT +3, время: 14:22.

Powered by vBulletin® Version 3.8.2
Copyright ©2000 - 2022, Jelsoft Enterprises Ltd. Перевод: zCarot