PDA

Просмотр полной версии : (24/96) Kraftwerk - The Man Machine (1978) [Capitol Records ‎– 14C 062-85444, Capitol Records ‎– E ST 11728 // Greece] (lossless)


Борис 63
12.06.2017, 11:52
http://img-fotki.yandex.ru/get/362774/41706495.14dd/0_191730_d87b96ad_orig.png (http://img-fotki.yandex.ru/get/108168/41706495.14dd/0_19172e_c11637fb_orig.jpg)

http://img-fotki.yandex.ru/get/231315/41706495.14dd/0_191731_26fd21fd_orig.png (http://img-fotki.yandex.ru/get/244154/41706495.14dd/0_19172f_8e79cf95_orig.jpg)

Оцифровка с пластинки Игоря (Капитан_Воронин)

Спасибо ему

Треклист:

01 Kraftwerk - The Robots
02 Kraftwerk - Spacelab
03 Kraftwerk - Metropolis
04 Kraftwerk - The Model
05 Kraftwerk - Neon Lights
06 Kraftwerk - The Man Machine

http://img-fotki.yandex.ru/get/51057/41706495.14de/0_19174e_c996d14a_orig.png (http://img-fotki.yandex.ru/get/174352/41706495.14de/0_19174b_66b0cae5_orig.jpg) http://img-fotki.yandex.ru/get/196600/41706495.14de/0_19174f_b4aa4b21_orig.png (http://img-fotki.yandex.ru/get/195125/41706495.14de/0_19174d_5d229329_orig.jpg) http://img-fotki.yandex.ru/get/103091/41706495.14de/0_191750_eefb3a56_orig.png (http://img-fotki.yandex.ru/get/4415/41706495.14de/0_19174c_d86c6b4d_orig.jpg) http://img-fotki.yandex.ru/get/227342/41706495.14de/0_191751_787ca5e1_orig.png (http://img-fotki.yandex.ru/get/168237/41706495.14de/0_191753_888f55e0_orig.jpg) http://img-fotki.yandex.ru/get/15539/41706495.14de/0_191752_f4790a39_orig.png (http://img-fotki.yandex.ru/get/176508/41706495.14de/0_191754_9a256263_orig.jpg)

ссылка

.:: Скрытый текст (вы должны зарегистрироваться или войти под своим логином) ::.

Борис 63
12.06.2017, 12:11
Ссылка добавлена.

Альбом потрясающий.

Обратите внимание на конверт - в те года , да по Русски писать...

Отец Владимир
12.06.2017, 12:18
Была в юности катушка с этой группой.
Долго потом в ушах стоял шепоток - Айн, цвай, драй.. :icon_good:
Кстати, сейчас такой пласт от двух до пяти тысяч стОит..

Борис 63
12.06.2017, 12:27
Отец Владимир,

Володя , привет!

У меня в те года были записи на катушках в ДВУХ вариантах - одна на Немецком , другая на Английском - вот на Немецком сильно слух резала.

А Альбом великолепный - учитывая время , это же компьютерная музыка тех годов.

Есть еще одна пластиночка этой группы - сделаю , но позже.

Борис 63
12.06.2017, 12:29
Тему-то я из сети подписал - видимо другая версия - а тут на обложке чуток по-другому!:icon_friends:

Отец Владимир
12.06.2017, 12:31
Привет, Боря.
Выкладывай, что есть, всегда интересно послушать.
А очень даже скоро и на своей вертушке..

Дмитрий
12.06.2017, 12:38
Издание Kraftwerk ‎– Man Machine (1978)
Label:
Capitol Records ‎– 14C 062-85444, Capitol Records ‎– E ST 11728 // Greece

Дмитрий
12.06.2017, 12:45
Kraftwerk - Man Machine.cue (https://yadi.sk/d/0uV4BLS73K3czb)

REM GENRE "Electronic"
REM DATE 1978
REM COMMENT "Оцифровка - Борис 63"
TITLE "Man Machine"
PERFORMER "Kraftwerk"
FILE "K W.flac" WAVE
TRACK 01 AUDIO
TITLE "The Robots"
PERFORMER "Kraftwerk"
INDEX 01 00:02:60
TRACK 02 AUDIO
TITLE "Spacelab"
PERFORMER "Kraftwerk"
INDEX 01 06:13:72
TRACK 03 AUDIO
TITLE "Metropolis"
PERFORMER "Kraftwerk"
INDEX 01 12:07:10
TRACK 04 AUDIO
TITLE "The Model"
PERFORMER "Kraftwerk"
INDEX 01 18:13:54
TRACK 05 AUDIO
TITLE "Neon Lights"
PERFORMER "Kraftwerk"
INDEX 01 21:58:72
TRACK 06 AUDIO
TITLE "The Man Machine"
PERFORMER "Kraftwerk"
INDEX 01 30:50:13

Борис 63
12.06.2017, 13:11
http://img-fotki.yandex.ru/get/216168/41706495.14de/0_191744_21c1e30f_orig.png (http://img-fotki.yandex.ru/get/176508/41706495.14de/0_191741_c8da8488_orig.jpg) http://img-fotki.yandex.ru/get/242441/41706495.14de/0_191745_ec87b6f9_orig.png (http://img-fotki.yandex.ru/get/249782/41706495.14de/0_191743_c557a55a_orig.jpg) http://img-fotki.yandex.ru/get/61411/41706495.14de/0_191746_90f2d6f2_orig.png (http://img-fotki.yandex.ru/get/152444/41706495.14de/0_191742_bd957ceb_orig.jpg) http://img-fotki.yandex.ru/get/51057/41706495.14de/0_191747_d5581ec9_orig.png (http://img-fotki.yandex.ru/get/17917/41706495.14de/0_191748_9b76345_orig.jpg) http://img-fotki.yandex.ru/get/765674/41706495.14de/0_191749_3ce5e39f_orig.png (http://img-fotki.yandex.ru/get/245409/41706495.14de/0_19174a_c9d2150a_orig.jpg)

cthutq_1956
12.06.2017, 15:01
Борис 63, Суперская работа , высший пилотаж. :icon_good:

Оцифровка с пластинки Игоря (Капитан_Воронин) благодарен за щедрость :)

cthutq_1956
12.06.2017, 15:01
Борис 63, Суперская работа , высший пилотаж. :icon_good:

Оцифровка с пластинки Игоря (Капитан_Воронин) благодарен за щедрость :)

Дмитрий
12.06.2017, 18:45
Ну вот схэвкали.
Качество картинки ЗАМЕЧАТЕЛЬНОЕ!

Kraftwerk The Catalogue 3D HEVC.mkv
http://vsetutonline.com/forum/showthread.php?t=96628&page=68

пост 675 (http://vsetutonline.com/forum/showpost.php?p=331241&postcount=675)

General
Unique ID : 227279291311561397666553336225836252623 (0xAAFC6637B66360AB903936B1BF9B3DCF)
Complete name : S:\DC\Kraftwerk The Catalogue 3D.mkv
Format : Matroska
Format version : Version 4 / Version 2
File size : 2.65 GiB
Duration : 1 h 17 min
Overall bit rate : 4 893 kb/s
Movie name : Kraftwerk: 3-D The Catalogue (2017) в 3Д
Encoded date : UTC 2017-06-11 03:21:02
Writing application : mkvmerge v6.8.0 ('Theme for Great Cities') 64bit built on Mar 2 2014 21:34:26
Writing library : libebml v1.3.0 + libmatroska v1.4.1

Video
ID : 1
Format : HEVC
Format/Info : High Efficiency Video Coding
Format profile : [email protected]@Main
Codec ID : V_MPEGH/ISO/HEVC
Duration : 1 h 17 min
Width : 1 920 pixels
Height : 1 080 pixels
Display aspect ratio : 16:9
Frame rate mode : Constant
Frame rate : 23.976 (24000/1001) FPS
Color space : YUV
Chroma subsampling : 4:2:0
Bit depth : 8 bits
Writing library : x265 2.4+26-355cf3582263:[Windows][GCC 7.1.0][64 bit] 8bit

Дмитрий
12.06.2017, 18:47
и звук:

Audio #1
ID : 2
Format : PCM
Codec ID : A_PCM/INT/LIT
Duration : 1 h 17 min
Bit rate mode : Constant
Channel(s) : 2 channels
Sampling rate : 48.0 kHz
Bit depth : 16 bits
Default : Yes
Forced : No

Капитан_Воронин
13.06.2017, 11:56
Спасибо, Борис! Качество пластинки к сожалению не идеал. Но очень здорово получилось!

Валерий0207
11.01.2019, 18:14
Super!